Welcome Guest ( Log In | Register )

> Negative Self - Negative Self (2015), Crossover/Thrash Metal
Lion
post Aug 10 2015, 08:39:48
Post #1

Guests team






(IMG:https://metalarea.org/images/audiocovers/2015_Aug/acov_tid250290_thumb.png)

*Artist: Negative Self
*Album: Negative Self
*Year: 2015
*Genre: Crossover/Thrash Metal
*Country: Sweden (IMG:https://metalarea.org/forum/style_images/flags/Sweden.png)
*Format: mp3@CBR320kbps
*Size: 88MB

Tracklist:
1. Back On Track
2. Another Year
3. Self-Destruct...The Pain Never Ends
4. Dancing With The Dead
5. My Own Company
6. Tied Down
7. No Tomorrow
8. Call It Depression
9. Negative Self
******************************
Total playing time: 38:36

Extended info
Вокал, ударные - Andreas Sandberg (ex-Dr. Living Dead!)
Бас - Frank Guldstrand (Undergång)
Гитара - Tor Nyman (ex-Oppression)


Technical info
(IMG:https://metalarea.org/images/spectrogram/2015_Aug/64a8830d90d45d5ca26752813787584d.png)
Input File: 01. Back On Track.mp3
Channels : 2
Sample Rate : 44100
Precision : 16-bit
Duration : 00:04:51.66 = 12862250 samples = 21874.6 CDDA sectors
File Size : 11.7M
Bit Rate : 321k
Sample Encoding: MPEG audio (layer I, II or III)
Comments :
Title=Back On Track
Artist=Negative Self
Album=Negative Self
Tracknumber=1
Year=2015



Register


Go to the top of the page
  Insert nick Quick quote
+Quote Post
 
Start new topic
Replies (1 - 6)
post Aug 10 2015, 09:09:47
Post #2

South Of Heaven /адепт ВУДУ
**************
Group: Металариец
Posts: 13,960
Releases: 9
On Forums: 11 years 6 months
Thanks: 5569 time(s)
Unknown


Хм, довольно редкое сочетание - вокалист и он же драммер.
Go to the top of the page
  Insert nick Quick quote
+Quote Post
post Aug 10 2015, 13:03:38
Post #3

Ъ
**************
Group: Металариец
Posts: 10,746
Releases: 9
On Forums: 12 years 9 months
Thanks: 2188 time(s)
Sweden



Не по мне.
Go to the top of the page
  Insert nick Quick quote
+Quote Post
post Aug 15 2015, 11:53:38
Post #4

Три Литра
***
Group: Завсегдатай
Posts: 210
Releases: 0
On Forums: 10 years 4 months
Thanks: 55 time(s)
Lithuania


Да это же чистый Suicidal Tendencies!!!
Go to the top of the page
  Insert nick Quick quote
+Quote Post
post Sep 21 2015, 11:38:52
Post #5

Три Литра
***
Group: Завсегдатай
Posts: 296
Releases: 0
On Forums: 13 years 5 months
Thanks: 93 time(s)
Ukraine


Suicidal for life (IMG:style_emoticons/default/crazy.gif)
Классный релиз. Только не понимаю, зачем клип было снимать на песню, которая не самая лучшая на альбоме.
Go to the top of the page
  Insert nick Quick quote
+Quote Post
post Aug 16 2020, 18:10:16
Post #6

Литр
*
Group: Подсевший
Posts: 54
Releases: 0
On Forums: 11 years 2 months
Thanks: 4 time(s)
Unknown


офигенный альбом!!! всем поклонникам SUICIDAL TENDENCIES `88-92
Go to the top of the page
  Insert nick Quick quote
+Quote Post
post Oct 14 2021, 10:57:07
Post #7

Шесть Литров
******
Group: Металариец
Posts: 516
Releases: 99
On Forums: 2 years 4 months
Thanks: 1685 time(s)
Russian Federation


mp3@CBR320kbps

Register
Go to the top of the page
  Insert nick Quick quote
+Quote Post

Reply to this topicStart new topic
1 User(s) are reading this topic (1 Guests and 0 Anonymous Users)
0 Members:

 



- Lo-Fi Version Support form
Copyrights and abuse reports form
Time is now: 16th October 2021 - 03:20:57