Welcome Guest ( Log In | Register )

> Uvikra - Obscurity [best of/compilation] (2015), Progressive Black/Death Metal (D5)
Lion
post Aug 14 2015, 08:16:38
Post #1

Guests team






(IMG:https://metalarea.org/images/audiocovers/2015_Aug/acov_tid250565_thumb.jpg)

*Artist: Uvikra
*Album: Obscurity [best of/compilation]
*Year: 2015
*Genre: Progressive Black/Death Metal
*Country: Lithuania (IMG:https://metalarea.org/forum/style_images/flags/Lithuania.png)
*Format: mp3@CBR320kbps
*Size: 70MB

Tracklist:
1. Mundane and Banal 03:58
2. Devoid 03:48
3. Antenna 02:54
4. Head 02:29
5. Manifesting Changes 04:35
6. Secret Catharsis 05:01
7. Uvikra 07:46
******************************
Total playing time: 30:31

Technical info
(IMG:https://metalarea.org/images/spectrogram/2015_Aug/e951d9f88d6079db25d81f33891c88ec.png)
Input File: 01. Mundane and Banal.mp3
Channels : 2
Sample Rate : 48000
Precision : 16-bit
Duration : 00:03:58.90 = 11467152 samples ~ 17917.4 CDDA sectors
File Size : 9.66M
Bit Rate : 323k
Sample Encoding: MPEG audio (layer I, II or III)
Comments :
Title=Mundane and Banal
Artist=Uvikra
Album=Obscurity
Tracknumber=1
Year=2015



Register


Go to the top of the page
  Insert nick Quick quote
+Quote Post
 
Start new topic
Replies (1 - 1)
post Aug 14 2015, 13:20:54
Post #2

Два Литра
**
Group: Завсегдатай
Posts: 182
Releases: 0
On Forums: 5 years 11 months
Thanks: 58 time(s)
Unknown




QUOTE
"Obscurity" is a compilation album which brings together the one-off, experimental, and mostly previously unreleased Uvikra music.
It consists of two main sources - Firstly, the lost black metal (and otherwise) sessions of 2012. These songs were recorded only as demos for fun.
Secondly, the most recent recordings. There were two doom/death metal songs recorded in December 2013 - "Secret Catharsis" (a song previously issued as a single) and "Manifesting Changes". And lastly, the eponymous song "Uvikra" was recorded in July 2014, and it's a proggy instrumental.


Thanks:
(1) NachtWulf,
Go to the top of the page
  Insert nick Quick quote
+Quote Post

Reply to this topicStart new topic
1 User(s) are reading this topic (1 Guests and 0 Anonymous Users)
0 Members:

 



- Lo-Fi Version Support form
Copyrights and abuse reports form
Time is now: 28th February 2020 - 11:20:27