Welcome Guest ( Log In | Register )

Объявления

* gmail.com упорно продолжает считать почту с нас "unsolicited" и отбивает в том числе и письма активации, поэтому просьба использовать альтернативные почтовые ящики.
------------
* gmail.com continues reject all mail from us as "unsolicited" (activation mails too) therefore please use alternate mail servers.
> Intolerant & End All - White Flame Of Death [split] (2013), Black Metal | Black Metal (D6)
post Aug 20 2015, 06:18:17
Post #1

Правь статус, ####!111
**************
Group: Металариец
Posts: 2,976
Releases: 423
On Forums: 16 years 6 months
Thanks: 14995 time(s)
Germany


(IMG:http://metalarea.org/images/audiocovers/2015_Aug/acov_tid250971_thumb.jpg)

*Artist: Intolerant & End All
*Album: White Flame Of Death [split]
*Year: 2013
*Genre: Black Metal | Black Metal
*Country: United States (IMG:http://metalarea.org/forum/style_images/flags/United%20States.png) | United States (IMG:http://metalarea.org/forum/style_images/flags/United%20States.png)
*Format: mp3@CBR320kbps
*Size: 68MB

Tracklist:
Intolerant:
1. The Spirit Will Triumph Over Those Against Nature
2. Steadfast Destiny
End All:
3. Blood
4. Honour
******************************
Total playing time: 29:08

Technical info
(IMG:http://metalarea.org/images/spectrogram/2015_Aug/acb88da5f79c883b2717f4e0f6bc80f2.png)
Input File: 02 - Intolerant - Steadfast Destiny.mp3
Channels : 2
Sample Rate : 44100
Precision : 16-bit
Duration : 00:07:26.40 = 19686196 samples = 33479.9 CDDA sectors
File Size : 17.9M
Bit Rate : 322k
Sample Encoding: MPEG audio (layer I, II or III)
Comments :
Title=Steadfast Destiny
Artist=Intolerant
Album=White Flame Of Death
Tracknumber=2
Year=2013
Genre=Black Metal



Register


Go to the top of the page
  Insert nick Quick quote
+Quote Post
 
Start new topic
Replies (1 - 1)
post Mar 4 2019, 21:51:30
Post #2

Ich bin die Trauer menschlich, kommen Sie zu mir und ich werde Ihnen vergelten
**************
Group: Металариец
Posts: 4,077
Releases: 691
From: Koenigsberg
On Forums: 16 years 4 months
Thanks: 12640 time(s)
Russian Federation


Register



Thanks:
Go to the top of the page
  Insert nick Quick quote
+Quote Post

Reply to this topicStart new topic
2 User(s) are reading this topic (2 Guests and 0 Anonymous Users)
0 Members:

 



- Lo-Fi Version Support form
Copyrights and abuse reports form
Time is now: 30th May 2024 - 23:32:55