Welcome Guest ( Log In | Register )

> Pestilentia Urbis - Cirque De La Peste (2015), Black Metal
Jacktheripper666
post Aug 23 2015, 10:47:32
Post #1

Guests team






(IMG:http://metalarea.org/images/audiocovers/2015_Aug/acov_tid251244_thumb.jpg)

*Artist: Pestilentia Urbis
*Album: Cirque De La Peste
*Year: 2015
*Genre: Black Metal
*Country: Russian Federation (IMG:http://metalarea.org/forum/style_images/flags/Russian%20Federation.png)
*Format: mp3@CBR320kbps
*Size: 85MB

Tracklist:
1. Intro 02:12
2. Hail to the Plague! 06:22
3. Arise 06:01
4. Interlude 02:07
5. Swastika in Mind, Rainbow in the Heart 03:41
6. New Age of Mysanthropy 04:49
7. Rose Clouds of Holocaust 03:26
8. Leaving the Plague Town 07:48
******************************
Total playing time: 36:26

FREE DOWNLOAD ON BANDCAMP



Extended info
Ну что, люмпены, патлатая гопота и просто интеллигентное быдло, вас ожидает чуть более, чем получасовой, поток помоев, дерьма, слюны и желчи. И немного крови. Совсем чуть-чуть.
Обиженным не уйдет никто. Ни задыхающаяся в своих же экскрементах илитка, ни ультраправый скам. На орехи достанется и мамкиным мизантропам и сатанистам, и диванным борцам за свободу.
Этот альбом - моя отрыжка в ответ на все, что сейчас творится вокруг и на бм-сцене в частности, на ее консервативность, элитизм, онанизм и некрофилию.
Так что если вы согласны со мной, то поднимайте черные знамена и, подобно черным крысам, с гордостью несите очищающую заразу Чумы.


Technical info
(IMG:http://metalarea.org/images/spectrogram/2015_Aug/7929c6ab5dad17cc51febcd2d7d2d7ce.png)
Input File: 02. Hail to the Plague!.mp3
Channels : 2
Sample Rate : 44100
Precision : 16-bit
Duration : 00:06:22.36 = 16862208 samples = 28677.2 CDDA sectors
File Size : 15.5M
Bit Rate : 324k
Sample Encoding: MPEG audio (layer I, II or III)
Comments :
Title=Hail to the Plague!
Artist=Pestilentia Urbis
Album=Cirque de la Peste
Tracknumber=2
Year=2015
Genre=Black Metal



Register


Go to the top of the page
  Insert nick Quick quote
+Quote Post
 
Start new topic
Replies (1 - 3)
post Aug 23 2015, 15:52:34
Post #2
BAN
Banned till
Jun 20 2038, 18:19:39



с дуба рухнул? здесь давно нету никаких ультраправых, чо им здесь делать?

или ты под ультраправым скамом имеешь в виду любителей идеологической цензуры? тогда все в порядке.
Go to the top of the page
  Insert nick Quick quote
+Quote Post
post Aug 23 2015, 16:13:06
Post #3

Восемь Литров
********
Group: Металариец
Posts: 852
Releases: 25
From: Ultima Thule
On Forums: 9 years 6 months
Thanks: 1631 time(s)
Japan


Гитаристы, использующие стандартные пресеты ГитарРига, должны страдать. Желательно долго.
Если абстрагироваться от бедрумного саунда (сейчас не 1991, чтоб такое проканало), то всё довольно неплохо.
Go to the top of the page
  Insert nick Quick quote
+Quote Post
post Aug 26 2015, 22:28:24
Post #4

Два Литра
**
Group: Завсегдатай
Posts: 116
Releases: 0
From: Москва
On Forums: 16 years 10 months
Thanks: 21 time(s)
Russian Federation


Дерьмо. Не тратьте время.


Thanks:
(1) templ,
Go to the top of the page
  Insert nick Quick quote
+Quote Post

Reply to this topicStart new topic
2 User(s) are reading this topic (2 Guests and 0 Anonymous Users)
0 Members:

 



- Lo-Fi Version Support form
Copyrights and abuse reports form
Time is now: 29th November 2022 - 11:25:58