Welcome Guest ( Log In | Register )

> Tarm - Siis Kui Laantes Saabub Hämarus (2010), Pagan Black Metal
post Aug 28 2015, 14:06:30
Post #1

Шесть Литров
******
Group: Металариец
Posts: 584
Releases: 26
On Forums: 12 years 4 weeks
Thanks: 567 time(s)
Chile


(IMG:https://metalarea.org/images/audiocovers/2015_Aug/acov_tid251629.jpg)

*Artist: Tarm
*Album: Siis Kui Laantes Saabub Hämarus
*Year: 2010
*Genre: Pagan Black Metal
*Country: Estonia (IMG:https://metalarea.org/forum/style_images/flags/Estonia.png)
*Format: mp3@CBR320kbps
*Size: 72MB

Tracklist:
01. Kardetuna Piinleb 02:57
02. Ohverdav Ori 02:20
03. Kus Nõder Inimmõistus 03:18
04. Oleme Metslased 03:36
05. Oma Kurjusega Hävitame 04:06
06. Pimedaima Oru Vihavalda 03:20
07. Siis Kui Laantes Saabub Hämarus 03:37
08. Sokuvitu Kultuse Juurdumise 04:00
09. Öiste Häälte Verejanust 04:24
******************************
Total playing time: 31:38

Technical info
(IMG:https://metalarea.org/images/spectrogram/2015_Aug/76969ffe4e0cbc715b1badf017b9b9c5.png)
Input File: 04) Oleme Metslased.mp3
Channels : 2
Sample Rate : 44100
Precision : 16-bit
Duration : 00:03:36.63 = 9553383 samples = 16247.2 CDDA sectors
File Size : 8.70M
Bit Rate : 321k
Sample Encoding: MPEG audio (layer I, II or III)
Comments :
Title=Oleme Metslased
Artist=Tarm
Album=Siis Kui Laantes Saabub Hämarus
Tracknumber=04/09
Year=2010
Genre=Pagan/Black Metal



Register


This post has been edited by Абигор: Aug 29 2015, 11:17:25


Go to the top of the page
  Insert nick Quick quote
+Quote Post
 
Start new topic
Replies (1 - 2)
post Aug 29 2015, 16:31:33
Post #2

Мегаманьяк
***********
Group: Металариец
Posts: 1,598
Releases: 25
From: Spain
On Forums: 13 years 9 months
Thanks: 1346 time(s)
Spain


Register
Go to the top of the page
  Insert nick Quick quote
+Quote Post
post Jun 10 2021, 08:29:35
Post #3

Правь статус, ####!111
**************
Group: Металариец
Posts: 4,844
Releases: 371
From: MoscoW
On Forums: 14 years 6 months
Thanks: 6260 time(s)
Russian Federation


TARM:
Go to the top of the page
  Insert nick Quick quote
+Quote Post

Reply to this topicStart new topic
1 User(s) are reading this topic (1 Guests and 0 Anonymous Users)
0 Members:

 



- Lo-Fi Version Support form
Copyrights and abuse reports form
Time is now: 14th June 2021 - 22:03:11