Welcome Guest ( Log In | Register )

 
Reply to this topicStart new topic
> Imber Luminis - Winter Fallings And Dying Summers [compilation] (2015), Atmospheric Black/Doom Metal
post Aug 30 2015, 20:31:36
Post #1

Аннигилятор пивА
Group Icon
Group: V.I.P
Posts: 52,552
Releases: 16538
From: Koenigsberg - TILZIT
On Forums: 17 years 10 months
Thanks: 371791 time(s)
Russian Federation


(IMG:http://metalarea.org/images/audiocovers/2015_Aug/acov_tid251782_thumb.jpg)

*Artist: Imber Luminis
*Album: Winter Fallings And Dying Summers [compilation]
*Year: 2015
*Genre: Atmospheric Black/Doom Metal
*Country: Belgium (IMG:http://metalarea.org/forum/style_images/flags/Belgium.png)
*Format: mp3@CBR320kbps
*Size: 160MB

Tracklist:
1. I Can Hear The Birds Crying 10:40
2. I Am Not 13:13
3. Journey Across The Stars (Midnight Odyssey cover) 08:23
4. Negation 10:25
5. I Can See The Birds Dying 17:46
6. I Can Hear The Birds Crying (Piano Version) 06:26
******************************
Total playing time: 1:06:53



Extended info
A grand compilation of the yet only digitally available “Winter Fallings” EP and five brand new and exclusive songs.
Imber Luminis is one of those projects which like few others understands to create a desolate, melancholic and epic atmosphere that grasps your soul at its most vulnerable area.


Technical info
(IMG:http://metalarea.org/images/spectrogram/2015_Aug/5ab1225ea9b4d57fcec7dc9d509a9641.png)
Input File: 03 Journey Across The Stars (Midnight Odyssey cover).mp3
Channels : 2
Sample Rate : 44100
Precision : 16-bit
Duration : 00:08:23.64 = 22210436 samples = 37772.9 CDDA sectors
File Size : 20.3M
Bit Rate : 323k
Sample Encoding: MPEG audio (layer I, II or III)
Comments :
Title=Journey Across The Stars (Midnight Odyssey cover)
Artist=Imber Luminis
Album=Winter Fallings And Dying Summers (NP060)
Tracknumber=3
Year=2015



Register


This post has been edited by DarkHorde: Nov 4 2015, 13:38:11


Go to the top of the page
  Insert nick Quick quote
+Quote Post

Reply to this topicStart new topic
1 User(s) are reading this topic (1 Guests and 0 Anonymous Users)
0 Members:

 



- Lo-Fi Version Support form
Copyrights and abuse reports form
Time is now: 14th April 2024 - 07:51:52