Welcome Guest ( Log In | Register )

> И неформату есть предел.

Рэп/хип-хоп/шансон/поп удаляются. Для них есть свои порталы.

> Tentacles - Ambivalence (2015), Emoviolence
post Aug 31 2015, 10:37:09
Post #1

Маньяк
**********
Group: Металариец
Posts: 1,342
Releases: 119
On Forums: 10 years 3 months
Thanks: 1000 time(s)
Kazakhstan


(IMG:https://metalarea.org/images/audiocovers/2015_Aug/acov_tid251846_thumb.jpg)

*Artist: Tentacles
*Album: Ambivalence
*Year: 2015
*Genre: Emoviolence
*Country: United States (IMG:https://metalarea.org/forum/style_images/flags/United%20States.png)
*Format: mp3@CBR320kbps
*Size: 56MB

Tracklist:
1. A Warm Body 04:45
2. My Mortal Cord 01:25
3. Pillars Of Salt 01:34
4. No Commiseration 02:15
5. Enantiodromia 03:04
6. Ambivalence 02:55
7. Uproot 08:04
******************************
Total playing time: 24:02



Extended info
крутейшее долбилово, можно хорошенько челками потрясти


Technical info
(IMG:https://metalarea.org/images/spectrogram/2015_Aug/bc445e474633d8ae1ba081a6f0b27d70.png)
Input File: 1. A Warm Body.mp3
Channels : 2
Sample Rate : 44100
Precision : 16-bit
Duration : 00:04:45.88 = 12607484 samples = 21441.3 CDDA sectors
File Size : 11.5M
Bit Rate : 322k
Sample Encoding: MPEG audio (layer I, II or III)
Comments :
Title=A Warm Body
Artist=TENTACLES
Album=Ambivalence
Tracknumber=1
Year=2015



Register
Go to the top of the page
  Insert nick Quick quote
+Quote Post
 
Start new topic
Replies (1 - 1)
post Sep 24 2017, 15:12:01
Post #2

Маньяк
**********
Group: Металариец
Posts: 1,342
Releases: 119
On Forums: 10 years 3 months
Thanks: 1000 time(s)
Kazakhstan


Register
Go to the top of the page
  Insert nick Quick quote
+Quote Post

Reply to this topicStart new topic
1 User(s) are reading this topic (1 Guests and 0 Anonymous Users)
0 Members:

 



- Lo-Fi Version Support form
Copyrights and abuse reports form
Time is now: 19th November 2019 - 21:30:18