Welcome Guest ( Log In | Register )

> Akoman - Devouring The Divine Light (2015), Black Metal
post Sep 18 2015, 14:35:16
Post #1

666satanath@gmail.com
Group Icon
Group: Moderation team
Posts: 6,267
Releases: 645
From: Satan-Petersburg
On Forums: 13 years 3 months
Thanks: 15907 time(s)
Russian Federation


(IMG:http://metalarea.org/images/audiocovers/2015_Sep/acov_tid253138_thumb.jpg)

*Artist: Akoman
*Album: Devouring The Divine Light
*Year: 2015
*Genre: Black Metal
*Country: Ukraine (IMG:http://metalarea.org/forum/style_images/flags/Ukraine.png)
*Format: mp3@CBR320kbps
*Size: 86MB

Tracklist:
1. Триединый 05:14
2. Devouring the Divine Light 04:48
3. На покой 03:01
4. Flux of Pure Ecstasy 04:55
5. Эвокация 03:15
6. Хадит 04:23
7. Изгой 03:29
8. Разрушитель наций 06:02
9. Choronzon Abyss 03:49
******************************
Total playing time: 38:56



Preview 3
Preview 4

Extended info
CD Rip

Label: Tribulacion Productions (catalog # TR045)

6-panel digipak


Technical info
(IMG:http://metalarea.org/images/spectrogram/2015_Sep/18a5977c955fd0454726662dd0027533.png)
Input File: 02 Devouring the Divine Light.mp3
Channels : 2
Sample Rate : 44100
Precision : 16-bit
Duration : 00:04:47.77 = 12690437 samples = 21582.4 CDDA sectors
File Size : 11.5M
Bit Rate : 320k
Sample Encoding: MPEG audio (layer I, II or III)
Comments :
Title=Devouring the Divine Light
Artist=Akoman
Album=Devouring The Divine Light
Tracknumber=2
Year=2015
Genre=Black Metal



Register


Go to the top of the page
  Insert nick Quick quote
+Quote Post
 
Start new topic
Replies (1 - 2)
post Apr 23 2016, 13:14:28
Post #2

the faceless one
Group Icon
Group: S-moderation team
Posts: 9,601
Releases: 1978
On Forums: 15 years 6 months
Thanks: 124009 time(s)
Antarctica


Перезалито
Register


Thanks:
Go to the top of the page
  Insert nick Quick quote
+Quote Post
post Jun 4 2023, 02:24:34
Post #3

Девять Литров
*********
Group: Металариец
Posts: 900
Releases: 49
From: Donetsk
On Forums: 15 years 3 months
Thanks: 2138 time(s)
Ukraine


Люди добрые, обновите линк, пжлст!!!
(IMG:style_emoticons/default/pray.gif) (IMG:style_emoticons/default/pray.gif) (IMG:style_emoticons/default/pray.gif) (IMG:style_emoticons/default/pray.gif)
Go to the top of the page
  Insert nick Quick quote
+Quote Post

Reply to this topicStart new topic
1 User(s) are reading this topic (1 Guests and 0 Anonymous Users)
0 Members:

 



- Lo-Fi Version Support form
Copyrights and abuse reports form
Time is now: 22nd February 2024 - 16:31:18