Welcome Guest ( Log In | Register )

> И неформату есть предел.

Рэп/хип-хоп/шансон/поп удаляются. Для них есть свои порталы.

> KEN Mode - Success (2015), Post-Hardcore/Noise Rock (D5)
post Sep 25 2015, 14:47:48
Post #1

а ты попал в даунтаун
***********
Group: Металариец
Posts: 1,789
Releases: 66
From: Москва
On Forums: 14 years 10 months
Thanks: 4977 time(s)
Russian Federation


(IMG:http://metalarea.org/images/audiocovers/2015_Sep/acov_tid253612_thumb.jpg)

*Artist: KEN Mode
*Album: Success
*Year: 2015
*Genre: Post-Hardcore/Noise Rock
*Country: Canada (IMG:http://metalarea.org/forum/style_images/flags/Canada.png)
*Format: mp3@CBR320kbps
*Size: 87MB

Tracklist:
01. Blessed 05:49
02. These Tight Jeans 03:05
03. The Owl... 04:10
04. I Just Liked Fire 02:13
05. Management Control 04:08
06. A Passive Disaster 04:24
07. Failing at Fun Since 1981 03:03
08. A Catalog of Small Disappointments 03:42
09. Dead Actors 06:39
******************************
Total playing time: 37:13


(IMG:http://metalarea.org/images/youtube.png)

Extended info
Не обманитесь ютюбом, альбом неформатный.


Technical info
(IMG:http://metalarea.org/images/spectrogram/2015_Sep/90a71403401984257f4a52c3a84f4ba5.png)
Input File: 04 - I Just Liked Fire.mp3
Channels : 2
Sample Rate : 44100
Precision : 16-bit
Duration : 00:02:13.48 = 5886248 samples = 10010.6 CDDA sectors
File Size : 5.39M
Bit Rate : 323k
Sample Encoding: MPEG audio (layer I, II or III)
Comments :
Title=I Just Liked Fire
Artist=KEN mode
Album=Success
Tracknumber=04/09
Year=2015
Genre=Post-Hardcore/Noise Rock
Discnumber=1/1



Register


Go to the top of the page
  Insert nick Quick quote
+Quote Post
 
Start new topic
Replies (1 - 2)
post Oct 13 2015, 17:49:45
Post #2

а ты попал в даунтаун
***********
Group: Металариец
Posts: 1,789
Releases: 66
From: Москва
On Forums: 14 years 10 months
Thanks: 4977 time(s)
Russian Federation


Go to the top of the page
  Insert nick Quick quote
+Quote Post
post Sep 28 2023, 09:07:27
Post #3

Русский
********
Group: Металариец
Posts: 815
Releases: 0
From: Москва
On Forums: 17 years 6 months
Thanks: 254 time(s)
Russian Federation


новый вышел


Go to the top of the page
  Insert nick Quick quote
+Quote Post

Reply to this topicStart new topic
1 User(s) are reading this topic (1 Guests and 0 Anonymous Users)
0 Members:

 



- Lo-Fi Version Support form
Copyrights and abuse reports form
Time is now: 3rd March 2024 - 06:54:49