Welcome Guest ( Log In | Register )

> Drachenord - The Path [ep] (2014), Black Metal
Lion
post Oct 9 2015, 10:05:31
Post #1

Guests team






(IMG:https://metalarea.org/images/audiocovers/2015_Oct/acov_tid254350_thumb.jpg)

*Artist: Drachenord
*Album: The Path [ep]
*Year: 2014
*Genre: Black Metal
*Country: United States (IMG:https://metalarea.org/forum/style_images/flags/United%20States.png)
*Format: mp3@CBR320kbps
*Size: 41MB

Tracklist:
1. The Path 02:55
2. Everybody Dies 04:29
3. Black Crown Halo 02:16
4. Vortex of Perversion 02:34 instrumental
5. I Am Murder * 03:25
******************************
Total playing time: 15:39

Technical info
(IMG:https://metalarea.org/images/spectrogram/2015_Oct/e7818212f51951ced774bb24993ae29f.png)
Input File: 01. The Path.mp3
Channels : 2
Sample Rate : 48000
Precision : 16-bit
Duration : 00:02:55.44 = 8421264 samples ~ 13158.2 CDDA sectors
File Size : 7.02M
Bit Rate : 320k
Sample Encoding: MPEG audio (layer I, II or III)
Comments :
Title=The Path
Artist=Drachenord
Album=The Path (EP)
Tracknumber=1
Year=2014
Genre=138



Register


Go to the top of the page
  Insert nick Quick quote
+Quote Post
 
Start new topic
Replies (1 - 2)
post Oct 9 2015, 18:04:52
Post #2

Мегаманьяк
***********
Group: Металариец
Posts: 1,603
Releases: 25
From: Spain
On Forums: 14 years 4 weeks
Thanks: 1355 time(s)
Spain


Register
Go to the top of the page
  Insert nick Quick quote
+Quote Post
post May 15 2021, 18:13:45
Post #3

Правь статус, ####!111
**************
Group: Металариец
Posts: 5,015
Releases: 441
From: MoscoW
On Forums: 14 years 9 months
Thanks: 7392 time(s)
Russian Federation


Можно скачать Б/П в 320kbps!!!:
DRACHENORD:

(IMG:style_emoticons/default/metaler.gif)


Thanks:
(1) kim666,
Go to the top of the page
  Insert nick Quick quote
+Quote Post

Reply to this topicStart new topic
1 User(s) are reading this topic (1 Guests and 0 Anonymous Users)
0 Members:

 



- Lo-Fi Version Support form
Copyrights and abuse reports form
Time is now: 27th September 2021 - 05:19:41