Welcome Guest ( Log In | Register )

> Gorrch - Nera Estasi (2015), Black Metal
post Oct 13 2015, 20:01:47
Post #1

Thrash, Beer & Violence
**************
Group: Металариец
Posts: 5,503
Releases: 2772
From: Крестов Брод (Russland)
On Forums: 12 years 10 months
Thanks: 40460 time(s)
Russian Federation


(IMG:http://metalarea.org/images/audiocovers/2015_Oct/acov_tid254576_thumb.jpg)

*Artist: Gorrch
*Album: Nera Estasi
*Year: 2015
*Genre: Black Metal
*Country: Italy (IMG:http://metalarea.org/forum/style_images/flags/Italy.png)
*Format: mp3@CBR320kbps
*Size: 80MB

Tracklist:
1. Decrepita Stasi 04:27
2. Cinico Dominio 05:38
3. Altra Bile 07:42
4. Crudo Primordio 05:47
5. Intima Tenebra 04:56
6. Nera Estasi 06:13
******************************
Total playing time: 34:43



Technical info
(IMG:http://metalarea.org/images/spectrogram/2015_Oct/2bf79b6290429d7d5c16525f0ce6f1b8.png)
Input File: 01 - Decrepita Stasi.mp3
Channels : 2
Sample Rate : 44100
Precision : 16-bit
Duration : 00:04:27.10 = 11779286 samples = 20032.8 CDDA sectors
File Size : 10.8M
Bit Rate : 323k
Sample Encoding: MPEG audio (layer I, II or III)
Comments :
Title=Decrepita Stasi
Artist=Gorrch
Album=Nera Estasi
Tracknumber=01
Year=2015



Register


Go to the top of the page
  Insert nick Quick quote
+Quote Post
 
Start new topic
Replies (1 - 4)
VVurd
post Oct 14 2015, 00:05:07
Post #2

Guests team






Превью было настолько многообещающим, что диск уже в пути (IMG:style_emoticons/default/25.gif)
Go to the top of the page
  Insert nick Quick quote
+Quote Post
post Nov 2 2015, 15:42:36
Post #3

Sempiternus Necromant
**********
Group: Металариец
Posts: 1,042
Releases: 4
From: Сибирь - Алтайский Край
On Forums: 10 years 7 months
Thanks: 357 time(s)
Russian Federation


Вот это подсобил так подсобил, тут их наикрутейшую EP слушаю, думаю, полноформат бы послушать, а он уже на алтаре metalarea.org, премного благодарствую metadeat. Музон то конечно тотальный отрыв башки. (IMG:style_emoticons/default/true_black.gif)


Thanks:
(1) metadeat,
Go to the top of the page
  Insert nick Quick quote
+Quote Post
post Sep 15 2016, 08:50:01
Post #4

Crush! Kill! Destroy!
**************
Group: Металариец
Posts: 5,454
Releases: 15
From: Kaliningrad
On Forums: 12 years 8 months
Thanks: 5115 time(s)
Russian Federation


С первых риффов стало понятно, что все очень хорошо. Чуваки добавили слегка диссонантщины и оккультизму в злой такой скоростной black, и получилось у них великолепная смесь!
Go to the top of the page
  Insert nick Quick quote
+Quote Post
post Apr 28 2017, 04:42:38
Post #5

Пять Литров
*****
Group: Металариец
Posts: 477
Releases: 1
On Forums: 6 years 11 months
Thanks: 886 time(s)
Unknown


Register


Go to the top of the page
  Insert nick Quick quote
+Quote Post

Reply to this topicStart new topic
1 User(s) are reading this topic (1 Guests and 0 Anonymous Users)
0 Members:

 



- Lo-Fi Version Support form
Copyrights and abuse reports form
Time is now: 12th August 2020 - 16:23:52