Welcome Guest ( Log In | Register )

> И неформату есть предел.

Рэп/хип-хоп/шансон/поп удаляются. Для них есть свои порталы.

> Worms Of The Earth - Sitra Achra (2015), Industrial/Dark Ambient/Ritual Ambient/Tribal Ambient (D4)
post Oct 17 2015, 15:44:16
Post #1

Illuminati
***********
Group: Металариец
Posts: 1,582
Releases: 27
On Forums: 12 years 2 months
Thanks: 2281 time(s)
Russian Federation


(IMG:https://metalarea.org/images/audiocovers/2015_Oct/acov_tid254803_thumb.jpg)

*Artist: Worms Of The Earth
*Album: Sitra Achra
*Year: 2015
*Genre: Industrial/Dark Ambient/Ritual Ambient/Tribal Ambient
*Country: United States (IMG:https://metalarea.org/forum/style_images/flags/United%20States.png)
*Format: mp3@CBR320kbps
*Size: 116MB

Tracklist:
1. Malkuth - The World Dissolves And Reveals Sitra Achra
2. Gamaliel - Corrupted Sanctuary Of Fire
3. Gnarled Roots Suspend The Ruined Temple
4. Path Of Samekh
5. Thagirion - Mired In A River Of Drowned Bodies
6. Path Of Zamradiel
7. Satariel - Field Of Apocryphal Monuments
8. Excising The Last Vestiges Of Ahamkara
9. [CLOSING]
******************************
Total playing time: 53:05




Technical info
(IMG:https://metalarea.org/images/spectrogram/2015_Oct/7f4ba550a406e5e7d2c0eb11f184802b.png)
Input File: 01 - Malkuth (The World Dissolves and Reveals Sitra Achra).mp3
Channels : 2
Sample Rate : 44100
Precision : 16-bit
Duration : 00:09:04.60 = 24016948 samples = 40845.1 CDDA sectors
File Size : 21.9M
Bit Rate : 322k
Sample Encoding: MPEG audio (layer I, II or III)
Comments :
Title=Malkuth (The World Dissolves and Reveals Sitra Achra)
Artist=Worms Of The Earth
Album=Sitra Achra
Tracknumber=1
Year=2015
Genre=Dark Ambient / Industrial



Register


Go to the top of the page
  Insert nick Quick quote
+Quote Post
 
Start new topic
Replies (1 - 2)
post Nov 5 2015, 15:55:45
Post #2

Маньяк
**********
Group: Металариец
Posts: 1,229
Releases: 0
From: Saint-Petersburg
On Forums: 12 years 11 months
Thanks: 349 time(s)
Russian Federation


зачетная спектрограмма)
Go to the top of the page
  Insert nick Quick quote
+Quote Post
post Nov 5 2015, 17:36:35
Post #3

**************
Group: Металариец
Posts: 2,479
Releases: 14
From: Казань
On Forums: 11 years 4 days
Thanks: 3390 time(s)
Russian Federation


Плюнул на фолдер , повезло скачать с него. Но оно того стоит, еще как! Девять Гимнов как дорога в акаузальные пороги подсознания , преславутый свет в конце тоннеля , сменяется грезами о фантомной надежде о спасении
Go to the top of the page
  Insert nick Quick quote
+Quote Post

Reply to this topicStart new topic
1 User(s) are reading this topic (1 Guests and 0 Anonymous Users)
0 Members:

 



- Lo-Fi Version Support form
Copyrights and abuse reports form
Time is now: 18th September 2020 - 21:13:02