Welcome Guest ( Log In | Register )

Объявления

* gmail.com упорно продолжает считать почту с нас "unsolicited" и отбивает в том числе и письма активации, поэтому просьба использовать альтернативные почтовые ящики.
------------
* gmail.com continues reject all mail from us as "unsolicited" (activation mails too) therefore please use alternate mail servers.
> Celebration - Performes My Soul [demo] (1991), Death Metal
post Oct 20 2015, 10:54:04
Post #1

Подвал
**************
Group: Металариец
Posts: 20,615
Releases: 11840
From: Far East (Khabarovsk)
On Forums: 15 years 5 months
Thanks: 140877 time(s)
Russian Federation


(IMG:http://metalarea.org/images/audiocovers/2015_Oct/acov_tid254967_thumb.jpg)

*Artist: Celebration
*Album: Performes My Soul [demo]
*Year: 1991
*Genre: Death Metal
*Country: Poland (IMG:http://metalarea.org/forum/style_images/flags/Poland.png)
*Format: mp3@CBR320kbps
*Size: 38MB

Tracklist:
1. Keltic Tomb 01:02
2. Black Thing 03:42
3. Venom Voices 03:21
4. Burning Moon 05:12
5. Killer Instinct 03:01
6. Performers My Soul 00:50
******************************
Total playing time: 17:08

Extended info
Cd version.


Technical info
(IMG:http://metalarea.org/images/spectrogram/2015_Oct/dab3cd84a9b1649d130b4e9c4931e0cd.png)
Input File: 02-Black Things.mp3
Channels : 2
Sample Rate : 44100
Precision : 16-bit
Duration : 00:03:42.59 = 9816087 samples = 16694 CDDA sectors
File Size : 8.90M
Bit Rate : 320k
Sample Encoding: MPEG audio (layer I, II or III)
Comments :
Title=Black Things
Artist=Celebration
Album=Performes My Soul (Demo)
Tracknumber=02
Year=1991
Genre=Death Metal



Register


Go to the top of the page
  Insert nick Quick quote
+Quote Post
 
Start new topic
Replies (1 - 2)
post Oct 6 2023, 08:03:24
Post #2

Group: Дух
Posts: 2
Releases: 0
On Forums: 9 months 3 weeks
Thanks: 0 time(s)
Unknown


reupload?
Go to the top of the page
  Insert nick Quick quote
+Quote Post
post Oct 17 2023, 02:17:11
Post #3

Подвал
**************
Group: Металариец
Posts: 20,615
Releases: 11840
From: Far East (Khabarovsk)
On Forums: 15 years 5 months
Thanks: 140877 time(s)
Russian Federation


new link:
Register


Go to the top of the page
  Insert nick Quick quote
+Quote Post

Reply to this topicStart new topic
1 User(s) are reading this topic (1 Guests and 0 Anonymous Users)
0 Members:

 



- Lo-Fi Version Support form
Copyrights and abuse reports form
Time is now: 22nd July 2024 - 08:38:57