Welcome Guest ( Log In | Register )

> Iron Kingdom - Ride For Glory (2015), Heavy Metal
post Oct 25 2015, 01:52:40
Post #1

Serial Uploader
Group Icon
Group: V.I.P
Posts: 42,412
Releases: 40481
From: Lithuania
On Forums: 15 years 10 months
Thanks: 517372 time(s)
Lithuania


(IMG:http://metalarea.org/images/audiocovers/2015_Oct/acov_tid255225_thumb.jpg)

*Artist: Iron Kingdom
*Album: Ride For Glory
*Year: 2015
*Genre: Heavy Metal
*Country: Canada (IMG:http://metalarea.org/forum/style_images/flags/Canada.png)
*Format: mp3@CBR320kbps
*Size: 102MB

Tracklist:
01. On The Eve Of Battle
02. Leif Erikson
03. Ride For Glory
04. Lady Triệu And The Kingdom Of Wu
05. The Samurai
06. Night Attack
07. A Call To Arms
08. The Veiled Knight
******************************
Total playing time: 40:17



Technical info
(IMG:http://metalarea.org/images/spectrogram/2015_Oct/3562423a8fbdd040dbea8846c5d1176c.png)
Input File: 06. Night Attack.mp3
Channels : 2
Sample Rate : 44100
Precision : 16-bit
Duration : 00:06:50.50 = 18103182 samples = 30787.7 CDDA sectors
File Size : 17.2M
Bit Rate : 335k
Sample Encoding: MPEG audio (layer I, II or III)
Comments :
Title=Night Attack
Artist=Iron Kingdom
Album=Ride For Glory
Tracknumber=06/08
Year=2015



Register


Go to the top of the page
  Insert nick Quick quote
+Quote Post
 
Start new topic
Replies (1 - 2)
Lion
post Oct 25 2015, 09:29:30
Post #2

Guests team






Register


Thanks:
Go to the top of the page
  Insert nick Quick quote
+Quote Post
post Oct 26 2015, 14:55:35
Post #3

Перевозчик
**************
Group: Металариец
Posts: 3,626
Releases: 0
On Forums: 15 years 9 months
Thanks: 798 time(s)
Russian Federation


Ужас.

Go to the top of the page
  Insert nick Quick quote
+Quote Post

Reply to this topicStart new topic
1 User(s) are reading this topic (1 Guests and 0 Anonymous Users)
0 Members:

 



- Lo-Fi Version Support form
Copyrights and abuse reports form
Time is now: 22nd April 2024 - 03:57:59