Welcome Guest ( Log In | Register )

> Kalmankantaja & V-Khaoz - Kalmankantaja/V-Khaoz [split] (2015), Depressive Black Metal | Dark Ambient
post Oct 26 2015, 16:58:11
Post #1

the faceless one
Group Icon
Group: S-moderation team
Posts: 9,432
Releases: 1950
On Forums: 12 years 11 months
Thanks: 118460 time(s)
Russian Federation


(IMG:http://metalarea.org/images/audiocovers/2015_Oct/acov_tid255323_thumb.jpg)

*Artist: Kalmankantaja & V-Khaoz
*Album: Kalmankantaja/V-Khaoz [split]
*Year: 2015
*Genre: Depressive Black Metal | Dark Ambient
*Country: Finland (IMG:http://metalarea.org/forum/style_images/flags/Finland.png) | Finland (IMG:http://metalarea.org/forum/style_images/flags/Finland.png)
*Format: mp3@CBR320kbps
*Size: 195MB

Tracklist:
Kalmankantaja:
1. Musta Maa 09:29
2. Suohaudoista 07:20
3. Valon Tappaja 06:37
V-Khaoz:
4. World Wrapped In Callous Thoughts 08:10
5. Inevitable Devolution 08:34
6. Universe In My Arms 07:32
7. Silence In Heaven 05:28
******************************
Total playing time: 53:10

Extended info
CD-Rip + Scans 600 dpi

V-Khaoz - электронно-шумовой проект ударника Oath и Azaghal.


Technical info
(IMG:http://metalarea.org/images/spectrogram/2015_Oct/1d093c67cb7cdbae38e094edc6042df4.png)
Input File: 01. Musta Maa.mp3
Channels : 2
Sample Rate : 44100
Precision : 16-bit
Duration : 00:09:29.34 = 25108026 samples = 42700.7 CDDA sectors
File Size : 22.8M
Bit Rate : 320k
Sample Encoding: MPEG audio (layer I, II or III)
Comments :
Title=Musta Maa
Artist=Kalmankantaja
Album=Split
Tracknumber=01
Year=2015
Genre=Black Metal



Register


Go to the top of the page
  Insert nick Quick quote
+Quote Post
 
Start new topic
Replies (1 - 3)
post Oct 26 2015, 19:56:14
Post #2

Четыре Литра
****
Group: Металариец
Posts: 314
Releases: 0
On Forums: 15 years 1 week
Thanks: 189 time(s)
Belarus




Thanks:
(1) sacrut,
Go to the top of the page
  Insert nick Quick quote
+Quote Post
post Oct 27 2015, 07:24:05
Post #3

Absorbence
***********
Group: Металариец
Posts: 1,791
Releases: 216
From: Vastland Abyss of Cthulhu
On Forums: 14 years 8 months
Thanks: 3950 time(s)
Canada


приятная музыка для холодных зимних вечеров... thanks, Абигор for sharing.
Go to the top of the page
  Insert nick Quick quote
+Quote Post
post Oct 28 2015, 10:11:29
Post #4

Necromancer
Group Icon
Group: Curation team
Posts: 11,046
Releases: 271
From: Зеленоград
On Forums: 14 years 9 months
Thanks: 8916 time(s)
Russian Federation


Ну, пока ещё не зима, но музыка навевает её холодные ветра, особенно вторая часть сплита. (IMG:style_emoticons/default/20.gif)
Go to the top of the page
  Insert nick Quick quote
+Quote Post

Reply to this topicStart new topic
2 User(s) are reading this topic (2 Guests and 0 Anonymous Users)
0 Members:

 



- Lo-Fi Version Support form
Copyrights and abuse reports form
Time is now: 4th August 2021 - 12:51:36