Welcome Guest ( Log In | Register )

> Repulsive Aggression - Preachers Of Death (2015), Old School Thrash/Death Metal
post Oct 29 2015, 20:27:57
Post #1

Аннигилятор пивА
Group Icon
Group: V.I.P
Posts: 52,415
Releases: 16545
From: Koenigsberg - TILZIT
On Forums: 16 years 6 months
Thanks: 370185 time(s)
Russian Federation


(IMG:https://metalarea.org/images/audiocovers/2015_Oct/acov_tid255507_thumb.jpg)

*Artist: Repulsive Aggression
*Album: Preachers Of Death
*Year: 2015
*Genre: Old School Thrash/Death Metal
*Country: Norway (IMG:https://metalarea.org/forum/style_images/flags/Norway.png)
*Format: mp3@CBR320kbps
*Size: 99MB

Tracklist:
01. Bleed Them Dry
02. Patricide
03. Utter Repulsion
04. Reign
05. Lord Of Men
06. Hypothermia
07. Withering Flesh
08. Beat 'Em Down
09. Anthropoclast
10. Preachers Of Death
******************************
Total playing time: 37:53



Extended info
Nødset - Drums
See also: Concrete, Frail Grounds, ex-Framferd, ex-Morbid Symphony
E. Sæther - Guitars
Holter - Vocals


Technical info
(IMG:https://metalarea.org/images/spectrogram/2015_Oct/4d5b17a53445e8a8753a1a7e9f79f913.png)
Input File: 08. Beat \'em Down.mp3
Channels : 2
Sample Rate : 44100
Precision : 16-bit
Duration : 00:02:02.35 = 5395459 samples = 9175.95 CDDA sectors
File Size : 5.69M
Bit Rate : 372k
Sample Encoding: MPEG audio (layer I, II or III)
Comments :
Title=Beat 'em Down
Artist=Repulsive Aggression
Album=Preachers Of Death
Tracknumber=08/10
Year=2015



Register


Go to the top of the page
  Insert nick Quick quote
+Quote Post
 
Start new topic
Replies (1 - 8)
post Oct 30 2015, 18:21:32
Post #2

Welder - master Wunderkerzen
***********
Group: Металариец
Posts: 1,607
Releases: 47
On Forums: 14 years 7 months
Thanks: 4241 time(s)
Russian Federation


Register
Go to the top of the page
  Insert nick Quick quote
+Quote Post
post Oct 31 2015, 04:58:12
Post #3

Аннигилятор пивА
Group Icon
Group: V.I.P
Posts: 52,415
Releases: 16545
From: Koenigsberg - TILZIT
On Forums: 16 years 6 months
Thanks: 370185 time(s)
Russian Federation


MIRROR
Register

Register

Register



(IMG:style_emoticons/default/true_black.gif)
Go to the top of the page
  Insert nick Quick quote
+Quote Post
post Dec 4 2015, 20:45:07
Post #4

Empty Words
**************
Group: Металариец
Posts: 2,114
Releases: 13
From: Москва
On Forums: 13 years 3 months
Thanks: 2864 time(s)
Russian Federation


Бодрый трэш/дэтовый замес — по олдскулу, со здоровой долей угара и раздолбайства.
Go to the top of the page
  Insert nick Quick quote
+Quote Post
post Oct 25 2016, 04:59:38
Post #5

железный нечеловек
**********
Group: Металариец
Posts: 1,429
Releases: 3
From: Уфа
On Forums: 13 years 7 months
Thanks: 528 time(s)
Russian Federation


После классного дебюта (хотя, если честно, я успел подзабыть эту группу) продолжение совсем не удалось. Слишком мягкий,задвинутый звук, да и в композиторском плане не очень. Вызвало cкуку.
Go to the top of the page
  Insert nick Quick quote
+Quote Post
post Mar 16 2018, 10:13:21
Post #6

Мегаманьяк
***********
Group: Металариец
Posts: 1,947
Releases: 1
From: APATIN, SERBIA, АПАТИН, СЕРБИЯ
On Forums: 15 years 1 month
Thanks: 5739 time(s)



320 kbps

Register
Go to the top of the page
  Insert nick Quick quote
+Quote Post
post Nov 11 2021, 07:59:08    Сейчас играет: Re-up please ;-)
Post #7

Правь статус, ####!111
**************
Group: Металариец
Posts: 2,607
Releases: 0
From: Sofia
On Forums: 15 years 2 months
Thanks: 87 time(s)
Bulgaria


Please re-up (IMG:style_emoticons/default/pray.gif) (IMG:style_emoticons/default/pray.gif)
Go to the top of the page
  Insert nick Quick quote
+Quote Post
post Nov 12 2021, 16:14:27
Post #8

Правь статус, ####!111
Group Icon
Group: S-moderation team
Posts: 22,058
Releases: 1443
On Forums: 11 years 9 months
Thanks: 114601 time(s)
Unknown


Register


Thanks:
(2) Ingvar, Xtohar,
Go to the top of the page
  Insert nick Quick quote
+Quote Post
post Nov 12 2021, 16:15:20
Post #9

Правь статус, ####!111
**************
Group: Металариец
Posts: 2,607
Releases: 0
From: Sofia
On Forums: 15 years 2 months
Thanks: 87 time(s)
Bulgaria


Thank you very much !! (IMG:style_emoticons/default/headcrab.png) (IMG:style_emoticons/default/headcrab.png)

QUOTE(Moldavite @ Nov 12 2021, 15:14:27) *

Go to the top of the page
  Insert nick Quick quote
+Quote Post

Reply to this topicStart new topic
2 User(s) are reading this topic (2 Guests and 0 Anonymous Users)
0 Members:

 



- Lo-Fi Version Support form
Copyrights and abuse reports form
Time is now: 3rd December 2022 - 17:18:41