Welcome Guest ( Log In | Register )

> И неформату есть предел.

Рэп/хип-хоп/шансон/поп удаляются. Для них есть свои порталы.

> Злидень - Радість світанку вчорашнього дня (2015), Neocrust/D-beat
post Nov 13 2015, 06:09:00
Post #1

Правь статус, ####!111
**************
Group: Металариец
Posts: 3,497
Releases: 1809
From: Земля
On Forums: 6 years 6 months
Thanks: 9967 time(s)
Russian Federation


(IMG:https://metalarea.org/images/audiocovers/2015_Nov/acov_tid256514_thumb.jpg)

*Artist: Злидень
*Album: Радість світанку вчорашнього дня
*Year: 2015
*Genre: Neocrust/D-beat
*Country: Ukraine (IMG:https://metalarea.org/forum/style_images/flags/Ukraine.png)
*Format: mp3@CBR320kbps
*Size: 60MB

Tracklist:
1. Я б зміг 3:14
2. Неминучий кінець 2:46
3. Безумець 3:07
4. Все не справжнє 5:12
5. Світанок вчорашнього дня 3:20
6. Наша провина 2:20
7. Для кожного, та не для всіх 1:57
8. Я - раб 3:41
******************************
Total playing time: 25:37

Technical info
(IMG:https://metalarea.org/images/spectrogram/2015_Nov/9ab66f5ed239b49990585ca6cc74018e.png)
Input File: 01. Я б зміг.mp3
Channels : 2
Sample Rate : 44100
Precision : 16-bit
Duration : 00:03:14.96 = 8597516 samples = 14621.6 CDDA sectors
File Size : 7.80M
Bit Rate : 320k
Sample Encoding: MPEG audio (layer I, II or III)
Comments :
Title=РЇ Р± Р·РјС–Рі
Artist=Злидень



Register


Go to the top of the page
  Insert nick Quick quote
+Quote Post
 
Start new topic
Replies (1 - 2)
post Nov 16 2015, 08:36:36
Post #2

Русь Понад Усе!
**************
Group: Металариец
Posts: 4,314
Releases: 15
From: Украина
On Forums: 13 years 2 weeks
Thanks: 1737 time(s)
Ukraine


Стиль интересный, а где можно почитать про этот стиль (IMG:style_emoticons/default/bye.gif)
Go to the top of the page
  Insert nick Quick quote
+Quote Post
post Nov 16 2015, 09:02:23
Post #3

Котеги! Нравяцо котеги?
**************
Group: Металариец
Posts: 6,541
Releases: 0
From: Терра Инкогнита
On Forums: 10 years 3 months
Thanks: 2944 time(s)
Russian Federation


recber, ну хотя бы на на рукипедии


Thanks:
(1) recber,
Go to the top of the page
  Insert nick Quick quote
+Quote Post

Reply to this topicStart new topic
1 User(s) are reading this topic (1 Guests and 0 Anonymous Users)
0 Members:

 



- Lo-Fi Version Support form
Copyrights and abuse reports form
Time is now: 18th September 2020 - 18:01:27