Welcome Guest ( Log In | Register )

> И неформату есть предел.

Рэп/хип-хоп/шансон/поп удаляются. Для них есть свои порталы.

> Winnie Fuzz - Человечина (2015), Garage Stoner Rock
post Nov 14 2015, 10:34:09
Post #1

Правь статус, ####!111
**************
Group: Металариец
Posts: 3,497
Releases: 1809
From: Земля
On Forums: 6 years 6 months
Thanks: 9967 time(s)
Russian Federation


(IMG:https://metalarea.org/images/audiocovers/2015_Nov/acov_tid256587_thumb.jpg)

*Artist: Winnie Fuzz
*Album: Человечина
*Year: 2015
*Genre: Garage Stoner Rock
*Country: Russian Federation (IMG:https://metalarea.org/forum/style_images/flags/Russian%20Federation.png)
*Format: mp3@CBR320kbps
*Size: 112MB

Tracklist:
1. Plough / Плуг 03:30
2. Circus / Цирк 03:10
3. Stoner Rave / Стоунер Рейв 03:14
4. Warmth / Тепло 03:06
5. Bayonet / Штык 03:17
6. Freedom / Воля 07:50
7. Sabbath / Шабаш 04:12
8. Fist / Кулачок 03:04
9. Armored Train / Бронепоезд 02:29
10. Contrabandit / Контрабандит 03:45
11. Tchelovechina / Человечина 02:58
12. Not Enough / Мало 05:04
13. Burlak / Бурлак 03:11
******************************
Total playing time: 48:50

Technical info
(IMG:https://metalarea.org/images/spectrogram/2015_Nov/d6d2a888f72463916c83ac75be2a4bb6.png)
Input File: Winnie Fuzz - 01 Плуг - Человечина (2015).mp3
Channels : 2
Sample Rate : 44100
Precision : 16-bit
Duration : 00:03:30.58 = 9286622 samples = 15793.6 CDDA sectors
File Size : 8.42M
Bit Rate : 320k
Sample Encoding: MPEG audio (layer I, II or III)
Comments :
Title=
Artist=
Album=
Year=2015-10-11



Register


Thanks:
Go to the top of the page
  Insert nick Quick quote
+Quote Post
 
Start new topic
Replies (1 - 1)
post Nov 16 2015, 20:52:20
Post #2

Четыре Литра
****
Group: Металариец
Posts: 343
Releases: 27
From: France
On Forums: 11 years 1 month
Thanks: 781 time(s)
France


Go to the top of the page
  Insert nick Quick quote
+Quote Post

Reply to this topicStart new topic
1 User(s) are reading this topic (1 Guests and 0 Anonymous Users)
0 Members:

 



- Lo-Fi Version Support form
Copyrights and abuse reports form
Time is now: 18th September 2020 - 09:20:09