Welcome Guest ( Log In | Register )

Объявления

* gmail.com упорно продолжает считать почту с нас "unsolicited" и отбивает в том числе и письма активации, поэтому просьба использовать альтернативные почтовые ящики.
------------
* gmail.com continues reject all mail from us as "unsolicited" (activation mails too) therefore please use alternate mail servers.
> Torture Division - The Army Of Three [best of/compilation] (2013), Death Metal
post Nov 26 2015, 17:16:36
Post #1

Мегаманьяк
***********
Group: Металариец
Posts: 1,780
Releases: 34
From: -за леса,из-за гор
On Forums: 13 years 6 months
Thanks: 2221 time(s)
Russian Federation


(IMG:http://metalarea.org/images/audiocovers/2015_Nov/acov_tid257396_thumb.jpg)

*Artist: Torture Division
*Album: The Army Of Three [best of/compilation]
*Year: 2013
*Genre: Death Metal
*Country: Sweden (IMG:http://metalarea.org/forum/style_images/flags/Sweden.png)
*Format: mp3@CBR320kbps
*Size: 54MB

Tracklist:
1.Vampire Empire 03:17
2.Through the Eyes of a Dead 03:38
3.Clark the Monarch 02:57
4.Cirkelstryk 02:50
5.Otukt 03:18
6.Satan, sprit och våld 02:53
7.Bring on the Corpses 02:15
8.Lik 01:16
9.Gimp Grind 01:56
******************************
Total playing time: 24:20

Extended info
Songs 1-3 are taken from the demo "Through the Eyes of a Dead"
Songs 4-6 are taken from the demo "Satan, Sprit och Våld"
Song 7 is taken from the "Big Balls Metal Compilation".
Songs 8-9 are previously unreleased.


Technical info
(IMG:http://metalarea.org/images/spectrogram/2015_Nov/59a2d854474bc80f9e401dbcdf6d2eed.png)
Input File: 08 - Lik.mp3
Channels : 2
Sample Rate : 44100
Precision : 16-bit
Duration : 00:01:15.75 = 3340399 samples = 5680.95 CDDA sectors
File Size : 3.04M
Bit Rate : 321k
Sample Encoding: MPEG audio (layer I, II or III)
Comments :
Title=Lik
Artist=Torture Division
Album=The Army of Three
Tracknumber=08
Year=2014
Genre=Death Metal
Discnumber=1/1



Register


Go to the top of the page
  Insert nick Quick quote
+Quote Post
 
Start new topic
Replies (1 - 2)
post Apr 27 2016, 18:18:51
Post #2

Мегаманьяк
***********
Group: Металариец
Posts: 1,780
Releases: 34
From: -за леса,из-за гор
On Forums: 13 years 6 months
Thanks: 2221 time(s)
Russian Federation


Оставлю, пожалуй, здесь) Кавер от Torture Division на Mastodon и кавер на самих Torture Division от шведской группы Decadent Youngsters, играющих, как они сами пишут - Rock, Metal, Stoner, Cock Rock (IMG:style_emoticons/default/1488.gif) Слушаем, наслаждаемся (IMG:style_emoticons/default/9.gif)
Register



Thanks:
(1) Black Cat,
Go to the top of the page
  Insert nick Quick quote
+Quote Post
post Aug 14 2022, 17:33:17
Post #3

Правь статус, ####!111
**************
Group: Металариец
Posts: 8,732
Releases: 197
From: HELL
On Forums: 17 years 6 months
Thanks: 30276 time(s)
Uruguay


320
Register


Thanks:
Go to the top of the page
  Insert nick Quick quote
+Quote Post

Reply to this topicStart new topic
1 User(s) are reading this topic (1 Guests and 0 Anonymous Users)
0 Members:

 



- Lo-Fi Version Support form
Copyrights and abuse reports form
Time is now: 25th April 2024 - 16:40:54