Welcome Guest ( Log In | Register )

> Midnight Scream - Flammarion (2014), Melodic Power/Thrash Metal (D)
post Dec 2 2015, 13:53:38
Post #1

Правь статус, ####!111
**************
Group: Металариец
Posts: 6,550
Releases: 6029
From: Lithuania
On Forums: 14 years 8 months
Thanks: 46074 time(s)
Lithuania


(IMG:https://metalarea.org/images/audiocovers/2015_Dec/acov_tid257705_thumb.jpg)

*Artist: Midnight Scream
*Album: Flammarion
*Year: 2014
*Genre: Melodic Power/Thrash Metal
*Country: Slovakia (IMG:https://metalarea.org/forum/style_images/flags/Slovakia.png)
*Format: mp3@CBR320kbps
*Size: 120MB

Tracklist:
1. 1741 / D.O.T.
2. Honey Badger
3. Fire That Doesn't Burn
4. Sám
5. This Is War
6. Pirates Dream's
7. Sleep Paralysis
8. Portrait of Tyranny
9. Flammarion
10. The Otherside
******************************
Total playing time: 52:29

(IMG:https://metalarea.org/images/myspace.png)


Technical info
(IMG:https://metalarea.org/images/spectrogram/2015_Dec/d53bec59db19fa4007f277db41877af2.png)
Input File: 02. Honey Badger.mp3
Channels : 2
Sample Rate : 44100
Precision : 16-bit
Duration : 00:04:19.19 = 11430191 samples = 19439.1 CDDA sectors
File Size : 10.4M
Bit Rate : 320k
Sample Encoding: MPEG audio (layer I, II or III)
Comments :
Title=Honey Badger
Artist=Midnight Scream
Album=Flammarion
Tracknumber=2/10
Year=2014
Genre=Power / Thrash Metal
Discnumber=1/1



Register


Go to the top of the page
  Insert nick Quick quote
+Quote Post
 
Start new topic
Replies (1 - 4)
post Dec 3 2015, 07:23:58
Post #2

hearer & reader
**************
Group: Металариец
Posts: 9,746
Releases: 172
From: Moscow
On Forums: 13 years 9 months
Thanks: 10909 time(s)
Russian Federation


Сонограмма дерьмовенько выглядит (IMG:style_emoticons/default/smile2.gif)
Ну да ладно, слушать можно.
Go to the top of the page
  Insert nick Quick quote
+Quote Post
post Jun 6 2021, 16:25:01
Post #3

Три Литра
***
Group: Завсегдатай
Posts: 269
Releases: 0
From: Sofia
On Forums: 13 years 8 months
Thanks: 15 time(s)
Bulgaria


Please re-up (IMG:style_emoticons/default/pray.gif) (IMG:style_emoticons/default/pray.gif) (IMG:style_emoticons/default/pray.gif)
Go to the top of the page
  Insert nick Quick quote
+Quote Post
post Jun 11 2021, 15:53:25
Post #4

Group Icon
Group: S-moderation team
Posts: 21,086
Releases: 1443
From: Zagreb
On Forums: 10 years 3 months
Thanks: 97198 time(s)
Croatia


Register


Go to the top of the page
  Insert nick Quick quote
+Quote Post
post Jun 11 2021, 16:23:15
Post #5

Три Литра
***
Group: Завсегдатай
Posts: 269
Releases: 0
From: Sofia
On Forums: 13 years 8 months
Thanks: 15 time(s)
Bulgaria


You are amazing !! Thank you so much !!! (IMG:style_emoticons/default/pray.gif) (IMG:style_emoticons/default/pray.gif) (IMG:style_emoticons/default/9.gif) (IMG:style_emoticons/default/9.gif)

QUOTE(Borderline1991 @ Jun 11 2021, 14:53:25) *

Go to the top of the page
  Insert nick Quick quote
+Quote Post

Reply to this topicStart new topic
1 User(s) are reading this topic (1 Guests and 0 Anonymous Users)
0 Members:

 



- Lo-Fi Version Support form
Copyrights and abuse reports form
Time is now: 14th June 2021 - 22:41:42