Welcome Guest ( Log In | Register )

> Sanzu - Heavy Over The Home (2015), Death Metal/Deathcore
post Dec 2 2015, 16:04:53
Post #1

Три Литра
***
Group: Завсегдатай
Posts: 268
Releases: 225
On Forums: 9 years 7 months
Thanks: 3265 time(s)
Russian Federation


(IMG:http://metalarea.org/images/audiocovers/2015_Dec/acov_tid257720_thumb.jpg)

*Artist: Sanzu
*Album: Heavy Over The Home
*Year: 2015
*Genre: Death Metal/Deathcore
*Country: Australia (IMG:http://metalarea.org/forum/style_images/flags/Australia.png)
*Format: mp3@CBR320kbps
*Size: 92MB

Tracklist:
01. Old Orchard Floor
02. Phenomena
03. Ubiety
04. Tailor
05. Those Who Sleep In The East
06. Heavy Over The Home
07. Awaken
08. The Chill
09. Loss
10. Colorblind
******************************
Total playing time: 43:39

Technical info
(IMG:http://metalarea.org/images/spectrogram/2015_Dec/c3df02896e382353fadb2134ee142518.png)
Input File: 02-sanzu-phenomena-55af6f81.mp3
Channels : 2
Sample Rate : 44100
Precision : 16-bit
Duration : 00:04:27.97 = 11817301 samples = 20097.5 CDDA sectors
File Size : 10.7M
Bit Rate : 320k
Sample Encoding: MPEG audio (layer I, II or III)
Comments :
Title=Phenomena
Artist=Sanzu
Album=Heavy Over the Home
Tracknumber=2/10
Year=2015
Genre=22



Register


Thanks:
Go to the top of the page
  Insert nick Quick quote
+Quote Post
 
Start new topic
Replies (1 - 1)
post Oct 13 2021, 17:05:35
Post #2

Правь статус, ####!111
**************
Group: Металариец
Posts: 5,115
Releases: 468
From: MoscoW
On Forums: 14 years 10 months
Thanks: 7543 time(s)
Russian Federation


LISTENABLE Records:
Go to the top of the page
  Insert nick Quick quote
+Quote Post

Reply to this topicStart new topic
1 User(s) are reading this topic (1 Guests and 0 Anonymous Users)
0 Members:

 



- Lo-Fi Version Support form
Copyrights and abuse reports form
Time is now: 16th October 2021 - 03:07:59