Welcome Guest ( Log In | Register )

> Folteraar - Vertellingen Van Een Donkere Eeuw (2016), Raw Black Metal
Jacktheripper666
post Dec 5 2015, 09:45:36
Post #1

Guests team






(IMG:http://metalarea.org/images/audiocovers/2015_Dec/acov_tid257868_thumb.jpg)

*Artist: Folteraar
*Album: Vertellingen Van Een Donkere Eeuw
*Year: 2016
*Genre: Raw Black Metal
*Country: Netherlands (IMG:http://metalarea.org/forum/style_images/flags/Netherlands.png)
*Format: mp3@CBR320kbps
*Size: 95MB

Tracklist:
1. Innerlijk vuur (Intro) 01:24
2. De Mars der ondoden 03:41
3. Droomgezichten 02:26
4. Waan 04:26
5. Mijn Verlossing 04:38
6. Conjuratie van het kwaad 03:10
7. Lasterende gebeden 02:58
8. De vormloze chaos 04:10
9. Maalstroom in krankzinnigheid 03:23
10. Naar 02:28
11. Onzuiver 05:47
12. Nachtloper 01:58
******************************
Total playing time: 40:29



Extended info
The Throat


Technical info
(IMG:http://metalarea.org/images/spectrogram/2015_Dec/aa001fefc50c178b61ff6181bf002de4.png)
Input File: 02. De Mars der ondoden.mp3
Channels : 2
Sample Rate : 44100
Precision : 16-bit
Duration : 00:03:41.90 = 9785966 samples = 16642.8 CDDA sectors
File Size : 9.06M
Bit Rate : 327k
Sample Encoding: MPEG audio (layer I, II or III)
Comments :
Title=De Mars der ondoden
Artist=Folteraar
Album=Vertellingen van een donkere eeuw
Tracknumber=2
Year=2015
Genre=Raw Black Metal



Register


Go to the top of the page
  Insert nick Quick quote
+Quote Post
 
Start new topic
Replies (1 - 4)
Lion
post Dec 5 2015, 11:00:32
Post #2

Guests team






Register


Go to the top of the page
  Insert nick Quick quote
+Quote Post
post Dec 5 2015, 12:04:54
Post #3

Sempiternus Necromant
**********
Group: Металариец
Posts: 1,054
Releases: 4
From: Сибирь - Алтайский Край
On Forums: 11 years 11 months
Thanks: 365 time(s)
Russian Federation


Это непременно оно. (IMG:style_emoticons/default/true_black.gif) Суть есть, изречение мёртвого разрушителя, внимай древний мрак, каждым материальным элементом одновременно разделив их на восемь частей, или же просто созерцай их пустотой. (IMG:style_emoticons/default/25.gif)
Go to the top of the page
  Insert nick Quick quote
+Quote Post
post Feb 27 2017, 16:17:41
Post #4

the faceless one
Group Icon
Group: S-moderation team
Posts: 9,493
Releases: 1965
On Forums: 13 years 3 months
Thanks: 119786 time(s)
Russian Federation


Эксгумировал.
Register


Go to the top of the page
  Insert nick Quick quote
+Quote Post
post Feb 28 2017, 18:03:47
Post #5

Три Литра
***
Group: Завсегдатай
Posts: 230
Releases: 0
From: GREAT TARTARIA
On Forums: 10 years 10 months
Thanks: 91 time(s)
Unknown


.... и да восстанут мёртвые услышав зов Абигора
АВЭ!


Thanks:
Go to the top of the page
  Insert nick Quick quote
+Quote Post

Reply to this topicStart new topic
2 User(s) are reading this topic (2 Guests and 0 Anonymous Users)
0 Members:

 



- Lo-Fi Version Support form
Copyrights and abuse reports form
Time is now: 3rd December 2021 - 04:18:03