Welcome Guest ( Log In | Register )

> Exterminas - Dichotomy (2015), Black Metal
post Dec 5 2015, 11:10:27
Post #1

Правь статус, ####!111
**************
Group: Металариец
Posts: 2,976
Releases: 423
On Forums: 16 years 4 months
Thanks: 14972 time(s)
Germany


(IMG:http://metalarea.org/images/audiocovers/2015_Dec/acov_tid257874_thumb.jpg)

*Artist: Exterminas
*Album: Dichotomy
*Year: 2015
*Genre: Black Metal
*Country: Italy (IMG:http://metalarea.org/forum/style_images/flags/Italy.png)
*Format: mp3@CBR320kbps
*Size: 92MB

Tracklist:
1. God's Hammer
2. Unleashing The Cruelty
3. Collapse Into Time
4. Swallowing The Gravity
5. Upheaval Seems Anathema
6. Wandering From The Death’s Shore
7. In Apotheosis Of Pandemonium
8. The Dawn Of Deceit
******************************
Total playing time: 39:24



Technical info
(IMG:http://metalarea.org/images/spectrogram/2015_Dec/ce9454b448a6c497bd3c6258f649ccb0.png)
Input File: 4 - Swallowing the Gravity.mp3
Channels : 2
Sample Rate : 44100
Precision : 16-bit
Duration : 00:05:01.67 = 13303515 samples = 22625 CDDA sectors
File Size : 12.2M
Bit Rate : 322k
Sample Encoding: MPEG audio (layer I, II or III)
Comments :
Artist=Exterminas
Album=Dichotomy
Year=2015
Genre=Black Metal



Register


Go to the top of the page
  Insert nick Quick quote
+Quote Post
 
Start new topic
Replies (1 - 3)
post Dec 5 2015, 13:13:57
Post #2

While Waiting the Worms
***********
Group: Металариец
Posts: 1,614
Releases: 0
On Forums: 10 years 3 months
Thanks: 2542 time(s)
Unknown






Thanks:
(1) MMMMM,
Go to the top of the page
  Insert nick Quick quote
+Quote Post
post Jan 30 2017, 16:54:52
Post #3

Пациент наркодиспансера
*******
Group: Металариец
Posts: 769
Releases: 1
From: вращенец
On Forums: 15 years 1 day
Thanks: 214 time(s)
Ukraine


Перезалейте!


Thanks:
(1) wendigo,
Go to the top of the page
  Insert nick Quick quote
+Quote Post
post Jan 30 2017, 19:32:50
Post #4

Восемь Литров
********
Group: Металариец
Posts: 897
Releases: 117
On Forums: 9 years 8 months
Thanks: 5173 time(s)
Unknown


Register


Go to the top of the page
  Insert nick Quick quote
+Quote Post

Reply to this topicStart new topic
2 User(s) are reading this topic (2 Guests and 0 Anonymous Users)
0 Members:

 



- Lo-Fi Version Support form
Copyrights and abuse reports form
Time is now: 18th April 2024 - 00:09:41