Welcome Guest ( Log In | Register )

 
Reply to this topicStart new topic
> Mesmerize - Eyes Of Life [demo] (1994), Technical Death/Thrash Metal (D6)
post Dec 16 2015, 15:34:21
Post #1

Подвал
**************
Group: Металариец
Posts: 13,433
Releases: 7609
From: Far East (Khabarovsk)
On Forums: 10 years 3 months
Thanks: 72529 time(s)
Russian Federation


(IMG:https://metalarea.org/images/audiocovers/2015_Dec/acov_tid258664_thumb.jpg)

*Artist: Mesmerize
*Album: Eyes Of Life [demo]
*Year: 1994
*Genre: Technical Death/Thrash Metal
*Country: France (IMG:https://metalarea.org/forum/style_images/flags/France.png)
*Format: mp3@CBR320kbps
*Size: 50MB

Tracklist:
1. Lysaudia 00:50
2. Break Of Clock 04:40
3. Eyes Of Life 07:20
4. Haunt Your Dreams 05:05
5. Safety Just 06:17
******************************
Total playing time: 24:12

Technical info
(IMG:https://metalarea.org/images/spectrogram/2015_Dec/424a46113774b91491164accf8516cf5.png)
Input File: 02-Break of Clock.mp3
Channels : 2
Sample Rate : 44100
Precision : 16-bit
Duration : 00:04:40.56 = 12372564 samples = 21041.8 CDDA sectors
File Size : 11.2M
Bit Rate : 320k
Sample Encoding: MPEG audio (layer I, II or III)
Comments :
Title=Break of Clock
Artist=Mesmerize
Album=Eyes of Life
Tracknumber=2
Year=1994
Genre=22



Register


Go to the top of the page
  Insert nick Quick quote
+Quote Post

Reply to this topicStart new topic
1 User(s) are reading this topic (1 Guests and 0 Anonymous Users)
0 Members:

 



- Lo-Fi Version Support form
Copyrights and abuse reports form
Time is now: 23rd May 2019 - 21:49:48