Welcome Guest ( Log In | Register )

> Death Like Mass - Kręte Drogi [ep] (2015), Black Metal
Jacktheripper666
post Dec 20 2015, 08:33:17
Post #1

Guests team






(IMG:http://metalarea.org/images/audiocovers/2015_Dec/acov_tid258877_thumb.jpg)

*Artist: Death Like Mass
*Album: Kręte Drogi [ep]
*Year: 2015
*Genre: Black Metal
*Country: Poland (IMG:http://metalarea.org/forum/style_images/flags/Poland.png)
*Format: mp3@CBR320kbps
*Size: 55MB

Tracklist:
1. W Gardziel Szaleństwa 07:06
2. Kręte Drogi 04:40
3. Dar 03:04
4. Szafot 05:14
5. Przysięga 07:15
******************************
Total playing time: 27:19



Extended info
Under the Sign of Garazel Productions


Technical info
(IMG:http://metalarea.org/images/spectrogram/2015_Dec/c3064d4f6bf0149eaae9a46773a3181f.png)
Input File: 02. Kr?te drogi.mp3
Channels : 2
Sample Rate : 44100
Precision : 16-bit
Duration : 00:04:40.08 = 12351704 samples = 21006.3 CDDA sectors
File Size : 9.61M
Bit Rate : 275k
Sample Encoding: MPEG audio (layer I, II or III)
Comments :
Title=KrД™te drogi
Artist=Death Like Mass
Album=KrД™te drogi
Tracknumber=02/5
Year=2015
Genre=Black Metal
Discnumber=1/1



Register


Go to the top of the page
  Insert nick Quick quote
+Quote Post
 
Start new topic
Replies (1 - 4)
post Dec 20 2015, 09:08:44
Post #2

the faceless one
Group Icon
Group: S-moderation team
Posts: 9,493
Releases: 1965
On Forums: 13 years 3 months
Thanks: 119786 time(s)
Russian Federation


Прямой линк (без ожидания, рекламы, капчи) -
Register


Go to the top of the page
  Insert nick Quick quote
+Quote Post
post Dec 21 2015, 22:57:02
Post #3

Маньяк
**********
Group: Металариец
Posts: 1,126
Releases: 15
On Forums: 12 years 11 months
Thanks: 1952 time(s)
Ukraine


На вокале - Mark Of The Devil из Cultes Des Ghoules. Два трека с альбома можно было услышать живьем на NMBV.
Go to the top of the page
  Insert nick Quick quote
+Quote Post
post Dec 24 2015, 08:04:29
Post #4

Три Литра
***
Group: Завсегдатай
Posts: 230
Releases: 0
From: GREAT TARTARIA
On Forums: 10 years 10 months
Thanks: 91 time(s)
Unknown


....многие французские лейблы, со своими дайхард изданиями, отсасывают!
поляки жёстко рулят и этот релиз, подтверждение тому!
АМИНЬ


Go to the top of the page
  Insert nick Quick quote
+Quote Post
post Dec 11 2016, 20:44:30
Post #5

буква ю
**************
Group: Металариец
Posts: 5,280
Releases: 0
On Forums: 5 years 10 months
Thanks: 3412 time(s)
Unknown


поляки ну просто жгут во всех отношениях (IMG:style_emoticons/default/true_black.gif)
Register


Go to the top of the page
  Insert nick Quick quote
+Quote Post

Reply to this topicStart new topic
2 User(s) are reading this topic (2 Guests and 0 Anonymous Users)
0 Members:

 



- Lo-Fi Version Support form
Copyrights and abuse reports form
Time is now: 3rd December 2021 - 05:22:50