Welcome Guest ( Log In | Register )

> Crazer - Zлой (2015), Thrash Metal
post Dec 22 2015, 23:51:32
Post #1

Правь статус, ####!111
**************
Group: Металариец
Posts: 30,318
Releases: 22320
From: Г.Харьков
On Forums: 10 years 4 months
Thanks: 465832 time(s)
Unknown


(IMG:http://metalarea.org/images/audiocovers/2015_Dec/acov_tid259090_thumb.jpg)

*Artist: Crazer
*Album: Zлой
*Year: 2015
*Genre: Thrash Metal
*Country: Russian Federation (IMG:http://metalarea.org/forum/style_images/flags/Russian%20Federation.png)
*Format: mp3@CBR320kbps
*Size: 56MB

Tracklist:
1. Вивисекция
2. Зомби Онлайн
3. По Пятам
4. Плагиат
5. Клеветник
6. Та Страна
7. Хамелеон
8. Забухал Кузнец
******************************
Total playing time: 28:10

Preview 1

Technical info
(IMG:http://metalarea.org/images/spectrogram/2015_Dec/02deb868f0bbf1e1b2ee4a1e6ee4555f.png)
Input File: 03. По Пятам.mp3
Channels : 2
Sample Rate : 44100
Precision : 16-bit
Duration : 00:03:23.37 = 8968441 samples = 15252.5 CDDA sectors
File Size : 8.14M
Bit Rate : 320k
Sample Encoding: MPEG audio (layer I, II or III)
Comments :
Title=По Пятам
Artist=Crazer
Album=Zлой
Tracknumber=03
Year=2015
Genre=Thrash Metal



Register


Go to the top of the page
  Insert nick Quick quote
+Quote Post
 
Start new topic
Replies (1 - 7)
post Dec 23 2015, 16:03:11
Post #2

Два Литра
**
Group: Завсегдатай
Posts: 170
Releases: 5
From: Москва
On Forums: 15 years 7 months
Thanks: 154 time(s)
Russian Federation


а вот это реально не возможно слушать...
Go to the top of the page
  Insert nick Quick quote
+Quote Post
post Dec 24 2015, 12:34:34
Post #3

Dr.
**************
Group: Металариец
Posts: 5,349
Releases: 0
From: Primorye.ru
On Forums: 11 years 6 months
Thanks: 1114 time(s)
Russian Federation


Чуваши выдали Zлой , так как он того заслуживает, thrash вдоль и поперёк
Go to the top of the page
  Insert nick Quick quote
+Quote Post
Lion
post Dec 25 2015, 11:41:13
Post #4

Guests team






Register


Go to the top of the page
  Insert nick Quick quote
+Quote Post
post Dec 25 2015, 13:30:00
Post #5

Шесть Литров
******
Group: Металариец
Posts: 669
Releases: 0
From: Беларусь,Минск
On Forums: 12 years 4 months
Thanks: 59 time(s)
Unknown


На хера я это послушал!Это же убийство мозга,однозначно мля.


Thanks:
(1) aserius,
Go to the top of the page
  Insert nick Quick quote
+Quote Post
post Dec 25 2015, 13:44:16
Post #6

South Of Heaven /адепт ВУДУ
**************
Group: Металариец
Posts: 13,960
Releases: 9
On Forums: 12 years 5 months
Thanks: 5613 time(s)
Unknown


ЦИТАТА(MetalgeR @ Dec 25 2015, 15:30:00) *
На хера я это послушал!Это же убийство мозга,однозначно мля.

Так убил свой мозг? (IMG:style_emoticons/default/25.gif)
Go to the top of the page
  Insert nick Quick quote
+Quote Post
post Jan 6 2016, 13:30:56
Post #7

\m/
Group Icon
Group: S-moderation team
Posts: 8,055
Releases: 19
From: Петропавловск-Камчатский
On Forums: 13 years 3 months
Thanks: 8289 time(s)
Russian Federation


Ожидал худшего. Отнюдь не сопливый соплей трэшак. Не Гробовая Доска, но слушать можно. Я бы охарактеризовал стиль как Thrash/Death Metal.
Go to the top of the page
  Insert nick Quick quote
+Quote Post
post Jan 6 2016, 14:02:46
Post #8

Dr.
**************
Group: Металариец
Posts: 5,349
Releases: 0
From: Primorye.ru
On Forums: 11 years 6 months
Thanks: 1114 time(s)
Russian Federation


"Забухал Кузнец"
ЦИТАТА
слушать можно
переслушал (IMG:style_emoticons/default/metaler.gif)


Thanks:
(1) DarkHorde,
Go to the top of the page
  Insert nick Quick quote
+Quote Post

Reply to this topicStart new topic
2 User(s) are reading this topic (2 Guests and 0 Anonymous Users)
0 Members:

 



- Lo-Fi Version Support form
Copyrights and abuse reports form
Time is now: 25th September 2022 - 07:12:05