Welcome Guest ( Log In | Register )

> 

Здесь релизы с живыми прямыми ссылками на lossless

> Degial - Savage Mutiny (2015), Old School Death Metal (D4)
post Dec 25 2015, 20:28:15
Post #1

Аннигилятор пивА
Group Icon
Group: V.I.P
Posts: 52,415
Releases: 16545
From: Koenigsberg - TILZIT
On Forums: 16 years 6 months
Thanks: 370183 time(s)
Russian Federation


(IMG:https://metalarea.org/images/audiocovers/2015_Dec/acov_tid259257_thumb.jpg)

*Artist: Degial
*Album: Savage Mutiny
*Year: 2015
*Genre: Old School Death Metal
*Country: Sweden (IMG:https://metalarea.org/forum/style_images/flags/Sweden.png)
*Format: mp3@CBR320kbps
*Size: 96MB

Tracklist:
1. Doomgape 04:12
2. Savage Mutiny 03:27
3. Uncoiling Chaos 05:06
4. Death Siege 03:42
5. Pallor 05:58
6. Revenants 05:21
7. Sanguine Thirst 03:29
8. Transgression 03:03
******************************
Total playing time: 34:18




Extended info
Emil Svensson - Drums (Watain, Repugnant, ex-Degial of Embos, ex-Graveless, ex-Veternus, ex-Die Hard, ex-Malign)
Rickard Höggren - Guitars (ex-Degial of Embos, ex-Kane)
Hampus Eriksson - Guitars, Vocals (Unpure, Watain, ex-Degial of Embos, ex-Invidious, ex-Katalysator, ex-Malign, ex-Hverg, ex-Kane)
P.J: - Bass (Vorum, ex-Haudankaivaja, Begravningsentreprenörerna)
Guest:
Set Teitan - Guitars (lead), Vocals (additional) (Aborym, Dissection, Bloodline, Watain, Unanimated, Spiritual Ceremony, Anaal Nathrakh, Arckanum, Nifelheim)

Lyric contribution: Pelle Åhman (In Solitude/Invidious)
Recording and mixing: Gottfrid Åhman (In Solitude/Invidious/Degial)
Mastering: Angel of Doom (Rape of Harmonies)
Artwork/Layout: Erik Danielsson (Trident Arts/Watain)


Technical info
(IMG:https://metalarea.org/images/spectrogram/2015_Dec/039c92a07905f2f8d876105b1bb72c85.png)
Input File: 02. Savage Mutiny.mp3
Channels : 2
Sample Rate : 44100
Precision : 16-bit
Duration : 00:03:27.15 = 9135183 samples = 15536 CDDA sectors
File Size : 9.45M
Bit Rate : 365k
Sample Encoding: MPEG audio (layer I, II or III)
Comments :
Title=Savage Mutiny
Artist=Degial
Album=Savage Mutiny
Tracknumber=2
Year=2015



Register


Go to the top of the page
  Insert nick Quick quote
+Quote Post
 
Start new topic
Replies (1 - 7)
post Dec 26 2015, 14:10:39
Post #2

Аннигилятор пивА
Group Icon
Group: V.I.P
Posts: 52,415
Releases: 16545
From: Koenigsberg - TILZIT
On Forums: 16 years 6 months
Thanks: 370183 time(s)
Russian Federation


охренительно, первобытное яростное мракобесие, швыедишь тру дэт с оригинальными ходами


Thanks:
Go to the top of the page
  Insert nick Quick quote
+Quote Post
post Dec 26 2015, 16:41:07
Post #3

Crush! Kill! Destroy!
**************
Group: Металариец
Posts: 5,770
Releases: 15
From: Kaliningrad
On Forums: 15 years 2 weeks
Thanks: 5443 time(s)
Russian Federation


Отлично! Точнее - ОТЛИЧНО!!!
Достойное продолжение дебютного альбома, никаких тебе уездов в мелодику или прочий прогрессив (что есть хорошо, и пример Morbus Chron / Horrendous / Tribulation как бы намекает, но день никогда не может быть прожит зря, если в нем есть немного хорошего шведо-дэза).
Не зря этот коллектив очень часто упоминается в списках всякого рода "лучший альбом / группа последних лет" - чуваки круты!


Thanks:
Go to the top of the page
  Insert nick Quick quote
+Quote Post
krypto_chile
post Jul 26 2016, 19:07:26
Post #4

Guests team






Tremenda banda.
Go to the top of the page
  Insert nick Quick quote
+Quote Post
post Jun 6 2017, 21:43:15
Post #5

Девять Литров
*********
Group: Металариец
Posts: 962
Releases: 0
On Forums: 13 years 9 months
Thanks: 13 time(s)
Netherlands


Anybody got a working link, please?
Go to the top of the page
  Insert nick Quick quote
+Quote Post
post Jun 7 2017, 04:02:14
Post #6

Group: Подсевший
Posts: 24
Releases: 7
On Forums: 15 years 8 months
Thanks: 103 time(s)
Russian Federation


Register


Go to the top of the page
  Insert nick Quick quote
+Quote Post
post Nov 10 2021, 17:50:38    Сейчас играет: Re-up please ;-)
Post #7

Правь статус, ####!111
**************
Group: Металариец
Posts: 2,603
Releases: 0
From: Sofia
On Forums: 15 years 2 months
Thanks: 87 time(s)
Bulgaria


Please re-up (IMG:style_emoticons/default/pray.gif) (IMG:style_emoticons/default/pray.gif)
Go to the top of the page
  Insert nick Quick quote
+Quote Post
post Nov 12 2021, 14:45:25
Post #8

Правь статус, ####!111
Group Icon
Group: S-moderation team
Posts: 22,058
Releases: 1443
On Forums: 11 years 9 months
Thanks: 114600 time(s)
Unknown


Register
Register


Thanks:
Go to the top of the page
  Insert nick Quick quote
+Quote Post

Reply to this topicStart new topic
2 User(s) are reading this topic (2 Guests and 0 Anonymous Users)
0 Members:

 



- Lo-Fi Version Support form
Copyrights and abuse reports form
Time is now: 3rd December 2022 - 16:06:57