Welcome Guest ( Log In | Register )

> Aurum Solis - Рождение Солнца (2015), Gothic Doom/Dark Metal
Lion
post Dec 26 2015, 08:19:51
Post #1

Guests team






(IMG:https://metalarea.org/images/audiocovers/2015_Dec/acov_tid259278_thumb.jpg)

*Artist: Aurum Solis
*Album: Рождение Солнца
*Year: 2015
*Genre: Gothic Doom/Dark Metal
*Country: Russian Federation (IMG:https://metalarea.org/forum/style_images/flags/Russian%20Federation.png)
*Format: mp3@CBR320kbps
*Size: 101MB

Tracklist:
1. В Объятиях Мрака Ночи
2. Отблески Рассвета
3. Рождение Солнца
4. Восходы Жизни Плодов
******************************
Total playing time: 44:16



Technical info
(IMG:https://metalarea.org/images/spectrogram/2015_Dec/c532e1077928454d40182bd15f372808.png)
Input File: 04 - Восходы жизни плодов .mp3
Channels : 2
Sample Rate : 44100
Precision : 16-bit
Duration : 00:08:25.78 = 22304766 samples = 37933.3 CDDA sectors
File Size : 20.2M
Bit Rate : 320k
Sample Encoding: MPEG audio (layer I, II or III)
Comments :
Title=Восходы жизни плодов
Artist=Aurum Solis
Album=Рождение Солнца
Tracknumber=4
Year=2015



Register


Go to the top of the page
  Insert nick Quick quote
+Quote Post
 
Start new topic
Replies (1 - 2)
post May 24 2016, 09:28:44
Post #2

but I'm white and furry
**********
Group: Металариец
Posts: 1,388
Releases: 499
From: Москва
On Forums: 15 years 3 months
Thanks: 6707 time(s)
Russian Federation


А мне понравилось, несмотря на изначальный скепсис при виде страны происхождения. Очень атмосферно и главное нет никакого пафоса, как часто бывает у наших команд, это как-то сразу располагает и заставляет прислушаться именно к музыке. Насчёт оригинальности не скажу, не умею оценивать такие вещи, да и не главное это для меня, важнее, чтобы музыка была красивой, а красоты здесь хоть отбавляй. One-man проект кстати.
Go to the top of the page
  Insert nick Quick quote
+Quote Post
post May 4 2021, 13:36:47
Post #3

горечь и пустота
*******
Group: Металариец
Posts: 748
Releases: 27
From: Minsk (Blr)
On Forums: 13 years 11 months
Thanks: 722 time(s)
Unknown


Элементы неоклассики в Отблески Рассвета - красотища и полный улёт. (IMG:style_emoticons/default/20.gif)
Go to the top of the page
  Insert nick Quick quote
+Quote Post

Reply to this topicStart new topic
1 User(s) are reading this topic (1 Guests and 0 Anonymous Users)
0 Members:

 



- Lo-Fi Version Support form
Copyrights and abuse reports form
Time is now: 16th May 2021 - 19:19:26