Welcome Guest ( Log In | Register )

> Effigy - The Unreachable (2015), Old School Death Metal (D7)
post Jan 4 2016, 21:31:15
Post #1

Аннигилятор пивА
Group Icon
Group: V.I.P
Posts: 52,360
Releases: 16550
From: Koenigsberg - TILZIT
On Forums: 14 years 6 days
Thanks: 365285 time(s)
Russian Federation


(IMG:https://metalarea.org/images/audiocovers/2016_Jan/acov_tid259798_thumb.jpg)

*Artist: Effigy
*Album: The Unreachable
*Year: 2015
*Genre: Old School Death Metal
*Country: Switzerland (IMG:https://metalarea.org/forum/style_images/flags/Switzerland.png)
*Format: mp3@CBR320kbps
*Size: 105MB

Tracklist:
01. Six Million Ways to Die
02. The Unreachable
03. To Death (2800C) Cancer
04. Numbers
05. No Comment
06. Saturday Night Blood
07. It Gets Empty
******************************
Total playing time: 37:41



Extended info
Притехниченно-припрогленный материал старой школы где переплелись отголоски дэз, сикс фит андер, саффиков, дисайда...
Vocals: Luci
Guitar:Frank
Bass: Flancos
Drums: Mätu



Technical info
(IMG:https://metalarea.org/images/spectrogram/2016_Jan/0518998926a5418a0ac368d450466cbd.png)
Input File: 03. To Death (2800°C) Cancer.mp3
Channels : 2
Sample Rate : 44100
Precision : 16-bit
Duration : 00:04:14.25 = 11212425 samples = 19068.8 CDDA sectors
File Size : 12.3M
Bit Rate : 387k
Sample Encoding: MPEG audio (layer I, II or III)
Comments :
Title=To Death (2800В°C) Cancer
Artist=Effigy
Album=The Unreachable
Tracknumber=03/7
Year=2015
Genre=Death Metal
Discnumber=1/1



Register


Go to the top of the page
  Insert nick Quick quote
+Quote Post
 
Start new topic
Replies (1 - 6)
post Jan 5 2016, 18:42:29
Post #2

Пять Литров
*****
Group: Металариец
Posts: 408
Releases: 0
From: о. Синара
On Forums: 10 years 9 months
Thanks: 71 time(s)
Russian Federation


Басуха прёт напролом! (IMG:style_emoticons/default/banana.gif)
Go to the top of the page
  Insert nick Quick quote
+Quote Post
post Apr 19 2016, 22:06:36
Post #3

brutalcesar
**************
Group: Металариец
Posts: 17,930
Releases: 67
From: Рязань
On Forums: 11 years 4 months
Thanks: 9778 time(s)
Russian Federation


Просто шикарно!!!
Больше говорить тут нечего.
Go to the top of the page
  Insert nick Quick quote
+Quote Post
post May 6 2016, 18:09:24
Post #4

brutalcesar
**************
Group: Металариец
Posts: 17,930
Releases: 67
From: Рязань
On Forums: 11 years 4 months
Thanks: 9778 time(s)
Russian Federation


Ну не, это просто шедевр!!
На бульдозерный звук бассухи нанизаны мизантропичные риффы гитары, тягучий вокал и наддающие плотности барабаны.
Такого кромешного, и в то же время, непростого (!!!) хаоса я не припомню в последнее время.
Расслушал как следует - будто упоролся в болото!!

(IMG:style_emoticons/default/crazy.gif)


Thanks:
(1) Язва,
Go to the top of the page
  Insert nick Quick quote
+Quote Post
post May 25 2016, 15:37:28
Post #5

Schuldinerist
**************
Group: Металариец
Posts: 10,667
Releases: 34
From:
On Forums: 13 years 1 month
Thanks: 6863 time(s)
Russian Federation


Не разделяю восторгов cesar'а. Басуха - да, очень хороша. Остальное - просто хорошо. Хаоса не слышу.
А в общем и целом очень необычный замес из облегченного death/thrash и брутального низкого гроулинга типа саффиков/сикс фит андер, как говорил aest.
8/10
Go to the top of the page
  Insert nick Quick quote
+Quote Post
post Jan 13 2019, 08:05:58
Post #6

добрый мизантроп
***********
Group: Металариец
Posts: 1,731
Releases: 0
From: Минск
On Forums: 9 years 6 months
Thanks: 838 time(s)
Madagascar


from dark
Register



Thanks:
(1) artscald,
Go to the top of the page
  Insert nick Quick quote
+Quote Post
post Mar 26 2020, 11:11:23
Post #7

Подвал
**************
Group: Металариец
Posts: 14,656
Releases: 8300
From: Far East (Khabarovsk)
On Forums: 11 years 4 months
Thanks: 86059 time(s)
Russian Federation


Register


Thanks:
Go to the top of the page
  Insert nick Quick quote
+Quote Post

Reply to this topicStart new topic
2 User(s) are reading this topic (2 Guests and 0 Anonymous Users)
0 Members:

 



- Lo-Fi Version Support form
Copyrights and abuse reports form
Time is now: 3rd June 2020 - 03:19:32