Welcome Guest ( Log In | Register )

> Khanъ - Знамение (2016), Folk Metal
post Feb 1 2016, 12:22:53
Post #1

Serial Uploader
Group Icon
Group: V.I.P
Posts: 37,603
Releases: 35775
From: Lithuania
On Forums: 13 years 2 weeks
Thanks: 432914 time(s)
Lithuania


(IMG:https://metalarea.org/images/audiocovers/2016_Feb/acov_tid261474_thumb.jpg)

*Artist: Khanъ
*Album: Знамение
*Year: 2016
*Genre: Folk Metal
*Country: Bulgaria (IMG:https://metalarea.org/forum/style_images/flags/Bulgaria.png)
*Format: mp3@CBR320kbps
*Size: 90MB

Tracklist:
01. Пепел 03:50
02. Чума 04:45
03. Гарван 05:00
04. Павле Mи Пие 03:39
05. Небе 04:42
06. Земя 06:01
07. Жар 05:50
08. Домачине 04:44
******************************
Total playing time: 38:31





(IMG:https://metalarea.org/images/youtube.png)

Technical info
(IMG:https://metalarea.org/images/spectrogram/2016_Feb/1af9c494226a879b9e2c7953a1dfd035.png)
Input File: 02. Чума.mp3
Channels : 2
Sample Rate : 44100
Precision : 16-bit
Duration : 00:04:45.05 = 12570617 samples = 21378.6 CDDA sectors
File Size : 11.6M
Bit Rate : 325k
Sample Encoding: MPEG audio (layer I, II or III)
Comments :
Title=Чума
Artist=KhanСЉ
Album=Знамение
Tracknumber=2
Year=2016



Register


Go to the top of the page
  Insert nick Quick quote
+Quote Post
 
Start new topic
Replies (1 - 5)
post Feb 1 2016, 16:58:43
Post #2

hearer & reader
**************
Group: Металариец
Posts: 9,754
Releases: 172
From: Moscow
On Forums: 13 years 9 months
Thanks: 10938 time(s)
Russian Federation


Folkcore (IMG:style_emoticons/default/22.gif)


Thanks:
Go to the top of the page
  Insert nick Quick quote
+Quote Post
post Feb 14 2017, 19:46:46
Post #3

FOLK METAL FEVER
**************
Group: Металариец
Posts: 2,222
Releases: 6
From: Kyiv
On Forums: 13 years 7 months
Thanks: 290 time(s)
Ukraine


кора нет, но симпатично. вспомнил Balkandji
Go to the top of the page
  Insert nick Quick quote
+Quote Post
post Feb 14 2017, 20:22:21
Post #4

Правь статус, ####!111
**************
Group: Металариец
Posts: 3,099
Releases: 0
From: Москва
On Forums: 13 years 4 months
Thanks: 496 time(s)
Russian Federation


Ссылки битые . (IMG:style_emoticons/default/6.gif)
Go to the top of the page
  Insert nick Quick quote
+Quote Post
post Feb 15 2017, 07:59:51
Post #5

FOLK METAL FEVER
**************
Group: Металариец
Posts: 2,222
Releases: 6
From: Kyiv
On Forums: 13 years 7 months
Thanks: 290 time(s)
Ukraine


ЦИТАТА(DMIYUR @ Feb 14 2017, 23:22:21) *
Ссылки битые . (IMG:style_emoticons/default/6.gif)


вот еще пока
Register


Thanks:
(1) Aresson,
Go to the top of the page
  Insert nick Quick quote
+Quote Post
post Feb 15 2017, 14:17:18
Post #6

brutalcesar
**************
Group: Металариец
Posts: 18,207
Releases: 71
From: Рязань
On Forums: 12 years 5 months
Thanks: 10255 time(s)
Russian Federation


Register


Хотя я удалил после первой прослушки, а перематывать начал с 4-го трека.
Основной вокал тут вкупе с некоторыми гитарами вместо фолка поливает отвратительным кором, м-да...
Go to the top of the page
  Insert nick Quick quote
+Quote Post

Reply to this topicStart new topic
1 User(s) are reading this topic (1 Guests and 0 Anonymous Users)
0 Members:

 



- Lo-Fi Version Support form
Copyrights and abuse reports form
Time is now: 25th June 2021 - 11:09:27