Welcome Guest ( Log In | Register )

> Scream Maker - Back Against The World (2016), Heavy Metal
post Feb 10 2016, 20:16:53
Post #1

Thrash, Beer & Violence
**************
Group: Металариец
Posts: 5,503
Releases: 2771
From: Крестов Брод (Russland)
On Forums: 15 years 3 months
Thanks: 41020 time(s)
Russian Federation


(IMG:http://metalarea.org/images/audiocovers/2016_Feb/acov_tid262012_thumb.jpg)

*Artist: Scream Maker
*Album: Back Against The World
*Year: 2016
*Genre: Heavy Metal
*Country: Poland (IMG:http://metalarea.org/forum/style_images/flags/Poland.png)
*Format: mp3@CBR320kbps
*Size: 176MB

Tracklist:
1. Can You See the Fire? 05:45
2. Nosferatu 05:15
3. Far Away 04:48
4. King Is Dead 05:34
5. Signs in the Sky 04:35
6. Back Against the World 05:08
7. Godsend 06:10
8. Retribution 07:21
9. All Because of You 05:42
10. Black Fever 05:17
11. Into the Light 06:45
12. Walk with Me 04:07
13. Far Away (alternative mix) 04:49
14. Black Fever (alternative mix) 05:13
******************************
Total playing time: 1:16:29



HomePage

Technical info
(IMG:http://metalarea.org/images/spectrogram/2016_Feb/ef6bb7acb0f43affbc8c555842269a9c.png)
Input File: 01. Can You See The Fire.mp3
Channels : 2
Sample Rate : 44100
Precision : 16-bit
Duration : 00:05:45.64 = 15242504 samples = 25922.6 CDDA sectors
File Size : 13.9M
Bit Rate : 322k
Sample Encoding: MPEG audio (layer I, II or III)
Comments :
Title=Can You See The Fire?
Artist=Scream Maker
Album=Back Against The World
Tracknumber=1/14
Year=2016
Genre=Heavy Metal



Register


Go to the top of the page
  Insert nick Quick quote
+Quote Post
 
Start new topic
Replies (1 - 1)
post Feb 11 2022, 23:23:19
Post #2

Going home. Flying high.
**************
Group: Металариец
Posts: 13,612
Releases: 0
From: The Land of Shadows
On Forums: 16 years 5 months
Thanks: 30425 time(s)
Russian Federation


from web
Register


Thanks:
(1) Xtohar,
Go to the top of the page
  Insert nick Quick quote
+Quote Post

Reply to this topicStart new topic
2 User(s) are reading this topic (2 Guests and 0 Anonymous Users)
0 Members:

 



- Lo-Fi Version Support form
Copyrights and abuse reports form
Time is now: 28th January 2023 - 14:47:15