Welcome Guest ( Log In | Register )

> Scream Maker - We Are Not The Same (2014), Heavy Metal
post Feb 10 2016, 21:09:23
Post #1

Thrash, Beer & Violence
**************
Group: Металариец
Posts: 5,503
Releases: 2771
From: Крестов Брод (Russland)
On Forums: 15 years 3 months
Thanks: 41020 time(s)
Russian Federation


(IMG:http://metalarea.org/images/audiocovers/2016_Feb/acov_tid262014_thumb.jpg)

*Artist: Scream Maker
*Album: We Are Not The Same
*Year: 2014
*Genre: Heavy Metal
*Country: Poland (IMG:http://metalarea.org/forum/style_images/flags/Poland.png)
*Format: mp3@CBR320kbps
*Size: 112MB

Tracklist:
1. We Are Not the Same 04:01
2. Liberty 04:16
3. Wanna Be a Star 04:15
4. Cisza 03:54
5. Yesterday's Gone 05:46
6. Hell 04:24
7. Foolin' 05:14
8. 700 04:44
9. The Prophet 05:50
10. Deliverance 05:27
******************************
Total playing time: 47:51

HomePage


Extended info
We Are Not The Same – Full Album (Chinese market only) – 2014



Technical info
(IMG:http://metalarea.org/images/spectrogram/2016_Feb/d7ae24b2ee2de7ba767db68c7312b49c.png)
Input File: 01. We Are Not The Same.mp3
Channels : 2
Sample Rate : 44100
Precision : 16-bit
Duration : 00:04:01.87 = 10666467 samples = 18140.2 CDDA sectors
File Size : 9.93M
Bit Rate : 328k
Sample Encoding: MPEG audio (layer I, II or III)
Comments :
Title=We Are Not The Same
Artist=Scream Maker
Album=We Are Not the Same
Tracknumber=1/10
Year=2014-12-20
Genre=Heavy Metal



Register


Go to the top of the page
  Insert nick Quick quote
+Quote Post
 
Start new topic
Replies (1 - 1)
post Feb 11 2022, 23:20:23
Post #2

Going home. Flying high.
**************
Group: Металариец
Posts: 13,612
Releases: 0
From: The Land of Shadows
On Forums: 16 years 5 months
Thanks: 30425 time(s)
Russian Federation


from web
Register


Thanks:
(2) wreak, Xtohar,
Go to the top of the page
  Insert nick Quick quote
+Quote Post

Reply to this topicStart new topic
2 User(s) are reading this topic (2 Guests and 0 Anonymous Users)
0 Members:

 



- Lo-Fi Version Support form
Copyrights and abuse reports form
Time is now: 28th January 2023 - 13:45:22