Welcome Guest ( Log In | Register )

Объявления

* gmail.com упорно продолжает считать почту с нас "unsolicited" и отбивает в том числе и письма активации, поэтому просьба использовать альтернативные почтовые ящики.
------------
* gmail.com continues reject all mail from us as "unsolicited" (activation mails too) therefore please use alternate mail servers.
> Temple Of Sorrow - Experience Of Dying [demo] (1994), Death Metal
post Feb 11 2016, 13:41:59
Post #1

Правь статус, ####!111
**************
Group: Металариец
Posts: 6,583
Releases: 6047
From: Lithuania
On Forums: 17 years 7 months
Thanks: 46958 time(s)
Lithuania


(IMG:https://metalarea.org/images/audiocovers/nocover.gif)

*Artist: Temple Of Sorrow
*Album: Experience Of Dying [demo]
*Year: 1994
*Genre: Death Metal
*Country: Czech Republic (IMG:https://metalarea.org/forum/style_images/flags/Czech%20Republic.png)
*Format: mp3@CBR320kbps
*Size: 46MB

Tracklist:
1. Point over the Infinite
2. When you Sleep
3. God-forsaken Legend
4. Hallucinations
5. Conscience of Eras
******************************
Total playing time: 20:11

Preview 1

Technical info
(IMG:https://metalarea.org/images/spectrogram/2016_Feb/0cdc4c8e999aee25cfdc403e81730dec.png)
Input File: 02 When you sleep.mp3
Channels : 2
Sample Rate : 44100
Precision : 16-bit
Duration : 00:04:56.08 = 13057128 samples = 22206 CDDA sectors
File Size : 11.8M
Bit Rate : 320k
Sample Encoding: MPEG audio (layer I, II or III)
Comments :
Title=02 When you sleep
Artist=Temple of Sorrow
Album=Experience of Dying
Tracknumber=2
Genre=9



Register


Go to the top of the page
  Insert nick Quick quote
+Quote Post
 
Start new topic
Replies (1 - 1)
post Apr 13 2023, 15:05:01
Post #2

Сволочь обыкновенная
**************
Group: Металариец
Posts: 3,381
Releases: 292
From: Брест
On Forums: 16 years 1 month
Thanks: 6828 time(s)
Belarus


Temple Of Sorrow - 1994 - Experience Of Dying (Demo) (mp3@CBR320kbps, 43MB, Digital covers)
Register

Thanx to Mucupurulence


Go to the top of the page
  Insert nick Quick quote
+Quote Post

Reply to this topicStart new topic
1 User(s) are reading this topic (1 Guests and 0 Anonymous Users)
0 Members:

 



- Lo-Fi Version Support form
Copyrights and abuse reports form
Time is now: 26th May 2024 - 10:49:57