Welcome Guest ( Log In | Register )

> 

Здесь релизы с живыми прямыми ссылками на lossless

> Goatcraft - Όλεθρος [ep] (2015), Black/Death Metal
post Feb 23 2016, 17:51:00
Post #1

Правь статус, ####!111
**************
Group: Металариец
Posts: 2,248
Releases: 1801
From: Praha
On Forums: 7 years 1 month
Thanks: 47471 time(s)
Czech Republic


(IMG:http://metalarea.org/images/audiocovers/2016_Feb/acov_tid262769_thumb.jpg)

*Artist: Goatcraft
*Album: Όλεθρος [ep]
*Year: 2015
*Genre: Black/Death Metal
*Country: Slovakia (IMG:http://metalarea.org/forum/style_images/flags/Slovakia.png)
*Format: mp3@CBR320kbps
*Size: 64MB

Tracklist:
1. Isle of the Dead 02:20
2. Temples of the Underworld 04:52
3. Cataclysmic Monuments 00:42
4. Graveless 01:46
5. Abominations 01:06
6. At the Nightside Dawn 01:43
7. Morbid Call 00:21
8. Deathrite 03:11
9. Chthonic Crevices 00:42
10. Down Below 01:00
11. Invocation of Death 05:10
12. Dreadful Dimensions 00:26
13. Far from Elysian Fields 01:45
******************************
Total playing time: 25:04



Extended info
Great Slovakian stuff. As usually

Fvkk off!!!!


Technical info
(IMG:http://metalarea.org/images/spectrogram/2016_Feb/705d1d8942c87fa7a79f6bf2bcd3a40f.png)
Input File: 02. Temples Of Underworld.mp3
Channels : 2
Sample Rate : 44100
Precision : 16-bit
Duration : 00:04:52.11 = 12881831 samples = 21907.9 CDDA sectors
File Size : 12.0M
Bit Rate : 328k
Sample Encoding: MPEG audio (layer I, II or III)
Comments :
Title=Temples Of Underworld
Artist=Goatcraft
Album=ОЊО»ОµОёПЃОїП‚
Tracknumber=02/13
Year=2015
Genre=Black / Death Metal



Register


Go to the top of the page
  Insert nick Quick quote
+Quote Post
 
Start new topic
Replies (1 - 7)
post Feb 25 2016, 06:47:09
Post #2

Шесть Литров
******
Group: Металариец
Posts: 594
Releases: 0
From: Johannesburg, South Africa
On Forums: 11 years 9 months
Thanks: 161 time(s)
South Africa


"Ошибка - Внутренняя ошибка на сервере."

Please re-up using another server!

(IMG:style_emoticons/default/pray.gif)
Go to the top of the page
  Insert nick Quick quote
+Quote Post
post Mar 21 2016, 17:30:08
Post #3

Дети, блуждающие в Пустошах, возрадуйтесь! Атом даёт вам шанс на спасение!
********
Group: Металариец
Posts: 846
Releases: 147
From: Одеса
On Forums: 7 years 3 months
Thanks: 2257 time(s)
Ukraine


Same All:

Register


Go to the top of the page
  Insert nick Quick quote
+Quote Post
post Mar 29 2016, 08:04:30
Post #4

Три Литра
***
Group: Завсегдатай
Posts: 227
Releases: 0
From: GREAT TARTARIA
On Forums: 10 years 3 months
Thanks: 90 time(s)
Unknown


отличный материал!!!
Go to the top of the page
  Insert nick Quick quote
+Quote Post
post Jun 3 2019, 01:45:49
Post #5

Пять Литров
*****
Group: Металариец
Posts: 413
Releases: 0
On Forums: 7 years 9 months
Thanks: 12 time(s)
Russian Federation


Link Death!
Go to the top of the page
  Insert nick Quick quote
+Quote Post
post Jun 3 2019, 06:38:24
Post #6

Group Icon
Group: S-moderation team
Posts: 20,675
Releases: 1443
From: Zagreb
On Forums: 10 years 2 months
Thanks: 94707 time(s)
Croatia


Register


Go to the top of the page
  Insert nick Quick quote
+Quote Post
post Jun 16 2019, 15:21:08
Post #7

Пять Литров
*****
Group: Металариец
Posts: 413
Releases: 0
On Forums: 7 years 9 months
Thanks: 12 time(s)
Russian Federation


320?++ hells!!!
QUOTE(Borderline1991 @ Jun 3 2019, 01:38:24) *

Go to the top of the page
  Insert nick Quick quote
+Quote Post
post Apr 8 2021, 09:52:31
Post #8

Правь статус, ####!111
**************
Group: Металариец
Posts: 4,451
Releases: 225
From: MoscoW
On Forums: 14 years 5 months
Thanks: 4810 time(s)
Russian Federation


GOATCRAFT:


HEXENCAVE Productions:
Go to the top of the page
  Insert nick Quick quote
+Quote Post

Reply to this topicStart new topic
1 User(s) are reading this topic (1 Guests and 0 Anonymous Users)
0 Members:

 



- Lo-Fi Version Support form
Copyrights and abuse reports form
Time is now: 9th May 2021 - 09:17:43