Welcome Guest ( Log In | Register )

> DOpehaZe - Here Comes The Dopehaze (2016), Sludge/Stoner/Doom Metal
post Mar 1 2016, 13:23:46
Post #1

Serpent Doom
**************
Group: Металариец
Posts: 2,131
Releases: 657
From: Moscow region
On Forums: 13 years 4 months
Thanks: 11907 time(s)
Russian Federation


(IMG:https://metalarea.org/images/audiocovers/2016_Mar/acov_tid263148_thumb.jpg)

*Artist: DOpehaZe
*Album: Here Comes The Dopehaze
*Year: 2016
*Genre: Sludge/Stoner/Doom Metal
*Country: Russian Federation (IMG:https://metalarea.org/forum/style_images/flags/Russian%20Federation.png)
*Format: mp3@CBR320kbps
*Size: 117MB

Tracklist:
1. Broken Effigy Of Mine 14:28
2. Goddamn Dopeblues 08:21
3. Days Of Our Mutation 08:14
4. Junkie Zombies' Ritual 06:10
5. Here Comes The Dopehaze 11:18
******************************
Total playing time: 48:31


Preview 2

Technical info
(IMG:https://metalarea.org/images/spectrogram/2016_Mar/7ef7ff122f959371bc87fb4bf5df97b0.png)
Input File: dOpehaZe - Here Comes the Dopehaze - 04 Junkie Zombies\' Ritual.mp3
Channels : 2
Sample Rate : 44100
Precision : 16-bit
Duration : 00:06:10.42 = 16335698 samples = 27781.8 CDDA sectors
File Size : 15.0M
Bit Rate : 325k
Sample Encoding: MPEG audio (layer I, II or III)
Comments :
Title=Junkie Zombies' Ritual
Artist=dOpehaZe
Album=Here Comes the Dopehaze
Tracknumber=4
Year=2016



Register


Go to the top of the page
  Insert nick Quick quote
+Quote Post
 
Start new topic
Replies (1 - 2)
post Mar 3 2016, 22:01:45
Post #2

Правь статус, ####!111
**************
Group: Металариец
Posts: 49,761
Releases: 901
On Forums: 12 years 7 months
Thanks: 45968 time(s)
Russian Federation


Шикарнейший психоделичный стоуер дум, вот только обложка это (IMG:style_emoticons/default/facessspalm.png) полнейший - в худших традициях шансона и романтик коллекцшн. Неужели дыма и рогов не напустить было? (IMG:style_emoticons/default/25.gif) А так сами себе говна на вентилятор подкинули, своей тупаорылой каврой отвергнут от себя потенциальных удолбышей.
Go to the top of the page
  Insert nick Quick quote
+Quote Post
post Mar 3 2016, 23:26:53
Post #3

Крещенный в алкоголе
***********
Group: Металариец
Posts: 1,588
Releases: 30
From: Sea of darkness
On Forums: 16 years 3 months
Thanks: 735 time(s)
Israel


Я как раз наоборот только из за кавера и скачаю. Люблю блатняк, да и однообразная винтажная мазня уже заибала.


Thanks:
Go to the top of the page
  Insert nick Quick quote
+Quote Post

Reply to this topicStart new topic
2 User(s) are reading this topic (2 Guests and 0 Anonymous Users)
0 Members:

 



- Lo-Fi Version Support form
Copyrights and abuse reports form
Time is now: 24th January 2022 - 14:32:05