Welcome Guest ( Log In | Register )

> Abscendent - Decaying Human Condition (2016), Death/Thrash Metal
post Mar 4 2016, 02:10:51
Post #1

Serial Uploader
Group Icon
Group: V.I.P
Posts: 37,613
Releases: 35785
From: Lithuania
On Forums: 13 years 3 months
Thanks: 433549 time(s)
Lithuania


(IMG:http://metalarea.org/images/audiocovers/2016_Mar/acov_tid263277_thumb.jpg)

*Artist: Abscendent
*Album: Decaying Human Condition
*Year: 2016
*Genre: Death/Thrash Metal
*Country: Italy (IMG:http://metalarea.org/forum/style_images/flags/Italy.png)
*Format: mp3@CBR320kbps
*Size: 88MB

Tracklist:
01. Penance
02. Solipsia
03. Compelled
04. Doppelgänger
05. Nausea
******************************
Total playing time: 35:41



Technical info
(IMG:http://metalarea.org/images/spectrogram/2016_Mar/f84a69682d81f9ba3c229da19aed5db8.png)
Input File: 02. Solipsia.mp3
Channels : 2
Sample Rate : 44100
Precision : 16-bit
Duration : 00:07:22.79 = 19527215 samples = 33209.5 CDDA sectors
File Size : 18.2M
Bit Rate : 329k
Sample Encoding: MPEG audio (layer I, II or III)
Comments :
Title=Solipsia
Artist=Abscendent
Album=Decaying Human Condition
Tracknumber=02/05
Year=2016



Register


Go to the top of the page
  Insert nick Quick quote
+Quote Post
 
Start new topic
Replies (1 - 8)
post Mar 4 2016, 09:51:24
Post #2

Morbid Angel
**************
Group: Металариец
Posts: 4,175
Releases: 0
From: Литва г.Клайпеда
On Forums: 14 years 6 months
Thanks: 1814 time(s)
Lithuania




Thanks:
Go to the top of the page
  Insert nick Quick quote
+Quote Post
post Mar 4 2016, 13:21:20
Post #3

Маньяк
**********
Group: Металариец
Posts: 1,005
Releases: 0
From: China
On Forums: 13 years 8 months
Thanks: 767 time(s)
Bulgaria


Quite good, intelligent progressive thrash. Classic music, quite fast as well with clever technical riffs. There's no death metal here, just the vocals...


Go to the top of the page
  Insert nick Quick quote
+Quote Post
post Mar 4 2016, 21:08:08
Post #4

MDM-Thrash Metal
**************
Group: Металариец
Posts: 10,591
Releases: 1320
From: Одесса
On Forums: 14 years 1 month
Thanks: 31858 time(s)
Ukraine


Очень грамотная работа! Не бездумное жужжание и запил по 3 аккордам, а очень разнообразные ходы, со сменами ритмов - мне очень пришлась по душе работа итальянцев!


Thanks:
Go to the top of the page
  Insert nick Quick quote
+Quote Post
post Mar 5 2016, 03:12:57
Post #5

Dr.
**************
Group: Металариец
Posts: 5,333
Releases: 0
From: Primorye.ru
On Forums: 10 years 6 months
Thanks: 1109 time(s)
Russian Federation


Весьма масштабная работа, с серьёзным результатом на выходе. (IMG:style_emoticons/default/9.gif)
Go to the top of the page
  Insert nick Quick quote
+Quote Post
post Jan 6 2017, 23:25:39
Post #6

Сектант технодро4чер
**************
Group: Металариец
Posts: 5,587
Releases: 143
From: Тимчасово окупована територія
On Forums: 13 years 1 month
Thanks: 5971 time(s)
Ukraine


Register


Go to the top of the page
  Insert nick Quick quote
+Quote Post
post Jan 26 2017, 12:36:31
Post #7

Schuldinerist
**************
Group: Металариец
Posts: 10,961
Releases: 34
From:
On Forums: 14 years 5 months
Thanks: 7235 time(s)
Russian Federation


Приятная симпатичная работа, каждое прослушивание добавляет положительных эмоций, но чего-то супер запоминающегося в ней нет.
8/10
Go to the top of the page
  Insert nick Quick quote
+Quote Post
post Oct 12 2018, 08:54:03
Post #8

_ - = # Thrashogolic # = - _ ... а давайте поржём все вместе
**************
Group: Металариец
Posts: 21,095
Releases: 4443
From: 404
On Forums: 11 years 3 months
Thanks: 28082 time(s)
Ukraine


Вышел новый (недлинный) альбом
(IMG:https://f4.bcbits.com/img/a1810585075_7.jpg)

Go to the top of the page
  Insert nick Quick quote
+Quote Post
post Feb 26 2019, 22:45:53
Post #9

MDM-Thrash Metal
**************
Group: Металариец
Posts: 10,591
Releases: 1320
From: Одесса
On Forums: 14 years 1 month
Thanks: 31858 time(s)
Ukraine


ЦИТАТА(Язва @ Jan 26 2017, 15:36:31) *
но чего-то супер запоминающегося в ней нет.
8/10

Не соглашусь. Первая вещь очень достойная!
Go to the top of the page
  Insert nick Quick quote
+Quote Post

Reply to this topicStart new topic
2 User(s) are reading this topic (2 Guests and 0 Anonymous Users)
0 Members:

 



- Lo-Fi Version Support form
Copyrights and abuse reports form
Time is now: 25th September 2021 - 05:19:49