Welcome Guest ( Log In | Register )

> Rotten Vomit - Fermented Corpse In The Church Basement (2015), Brutal Death Metal/Goregrind
post Mar 5 2016, 12:16:36
Post #1

Serial Uploader
Group Icon
Group: V.I.P
Posts: 37,580
Releases: 35752
From: Lithuania
On Forums: 12 years 11 months
Thanks: 432283 time(s)
Lithuania


(IMG:https://metalarea.org/images/audiocovers/2016_Mar/acov_tid263342_thumb.jpg)

*Artist: Rotten Vomit
*Album: Fermented Corpse In The Church Basement
*Year: 2015
*Genre: Brutal Death Metal/Goregrind
*Country: Venezuela (IMG:https://metalarea.org/forum/style_images/flags/Venezuela.png)
*Format: mp3@VBR294kbps
*Size: 62MB

Tracklist:
01. Clitorial Incineration 02:16
02. Feasting Of Mutated Maggots 02:32
03. Burning Aborted Anomalies 02:16
04. Transmission Of Internal Parasites 02:29
05. Shemale Carnivore 02:35
06. Sterilizing The Earth 00:59
07. Cold Blood Masturbation (Aberrations In The Kitchen) 02:01
08. Devouring Her Rotten Eyes 02:00
09. Collection Of Defleshed Virgins 02:06
10. Island Of Human Pieces 02:54
11. Village Of Diseases 02:10
12. Sodomizing The Masses 02:14
13. 666 Penetrations 01:45
******************************
Total playing time: 28:17




(IMG:https://metalarea.org/images/youtube.png)

Extended info
Scene CD-rip

(IMG:https://metalarea.org/images/spectrogram/2016_Mar/6f54603fb45f719ab05086b630a1d45f.png)
Input File: 02-rotten_vomit-feasting_of_mutated_maggots.mp3
Channels : 2
Sample Rate : 44100
Precision : 16-bit
Duration : 00:02:32.84 = 6740332 samples = 11463.1 CDDA sectors
File Size : 5.57M
Bit Rate : 292k
Sample Encoding: MPEG audio (layer I, II or III)
Comments :
Title=Feasting of Mutated Maggots
Artist=Rotten Vomit
Album=Fermented Corpse In The Church Basement
Tracknumber=2/13
Year=2016
Genre=Death Metal
Discnumber=1/1


Register


Go to the top of the page
  Insert nick Quick quote
+Quote Post
 
Start new topic
Replies (1 - 2)
post Mar 6 2016, 10:25:10
Post #2

mArdAk666
**********
Group: Металариец
Posts: 1,160
Releases: 0
From: Deutschland
On Forums: 10 years 11 months
Thanks: 331 time(s)
Germany


проиграл с названия группы.
Go to the top of the page
  Insert nick Quick quote
+Quote Post
post May 4 2021, 15:30:27
Post #3

Правь статус, ####!111
**************
Group: Металариец
Posts: 4,591
Releases: 276
From: MoscoW
On Forums: 14 years 5 months
Thanks: 5178 time(s)
Russian Federation


Можно скачать Б/П в 320kbps!!!:
ROTTEN VOMIT:

(IMG:style_emoticons/default/metaler.gif)
Go to the top of the page
  Insert nick Quick quote
+Quote Post

Reply to this topicStart new topic
1 User(s) are reading this topic (1 Guests and 0 Anonymous Users)
0 Members:

 



- Lo-Fi Version Support form
Copyrights and abuse reports form
Time is now: 16th May 2021 - 19:55:23