Welcome Guest ( Log In | Register )

> Interregnum - Asenzorn (2015), Viking/Death Metal (D6)
post Mar 7 2016, 14:47:34
Post #1

Serial Uploader
Group Icon
Group: V.I.P
Posts: 37,920
Releases: 36064
From: Lithuania
On Forums: 13 years 5 months
Thanks: 440045 time(s)
Lithuania


(IMG:https://metalarea.org/images/audiocovers/2016_Mar/acov_tid263468_thumb.jpg)

*Artist: Interregnum
*Album: Asenzorn
*Year: 2015
*Genre: Viking/Death Metal
*Country: Austria (IMG:https://metalarea.org/forum/style_images/flags/Austria.png)
*Format: mp3@CBR320kbps
*Size: 86MB

Tracklist:
01. Herrliche Farce 04:45
02. Gemeinschaft 03:30
03. Steiermark 04:47
04. Biar 03:25
05. Asenzorn 03:38
06. Urgewalt 05:05
07. Wenn Die Götter Schlafen 04:11
08. Signs Of War 03:35
09. Naturbuam 03:19
******************************
Total playing time: 36:15

(IMG:https://metalarea.org/images/myspace.png)

(IMG:https://metalarea.org/images/youtube.png)

Technical info
(IMG:https://metalarea.org/images/spectrogram/2016_Mar/407b0433f4f5d620a24f6a88d61ab62d.png)
Input File: 02. Gemeinschaft.mp3
Channels : 2
Sample Rate : 44100
Precision : 16-bit
Duration : 00:03:30.73 = 9293017 samples = 15804.5 CDDA sectors
File Size : 8.51M
Bit Rate : 323k
Sample Encoding: MPEG audio (layer I, II or III)
Comments :
Title=Gemeinschaft
Artist=Interregnum
Album=Asenzorn
Tracknumber=2
Year=2015



Register


Go to the top of the page
  Insert nick Quick quote
+Quote Post
 
Start new topic
Replies (1 - 4)
post Mar 7 2016, 18:55:46
Post #2

ME[ta]LLOMAN
**************
Group: Металариец
Posts: 5,020
Releases: 3
From: Avdeyevka
On Forums: 15 years 7 months
Thanks: 2072 time(s)
Honduras



vk.comъ preview


Thanks:
Go to the top of the page
  Insert nick Quick quote
+Quote Post
post Mar 8 2016, 07:55:46
Post #3

MDM-Thrash Metal
**************
Group: Металариец
Posts: 10,695
Releases: 1345
From: Одесса
On Forums: 14 years 3 months
Thanks: 32501 time(s)
Ukraine


облога, конечно (IMG:style_emoticons/default/1488.gif)
Go to the top of the page
  Insert nick Quick quote
+Quote Post
post Mar 8 2016, 09:13:36
Post #4

Сектант технодро4чер
**************
Group: Металариец
Posts: 5,590
Releases: 143
From: Тимчасово окупована територія
On Forums: 13 years 3 months
Thanks: 5992 time(s)
Ukraine


Ихь либэ дойче шпрахе (IMG:style_emoticons/default/19.gif)
Go to the top of the page
  Insert nick Quick quote
+Quote Post
post Oct 13 2021, 21:10:26
Post #5

i listen to black metal
**************
Group: Металариец
Posts: 3,117
Releases: 142
From: Москва
On Forums: 14 years 11 months
Thanks: 2375 time(s)
Russian Federation


вот что нужно часто переслушивать!!!
на ДР будет угар)))
Go to the top of the page
  Insert nick Quick quote
+Quote Post

Reply to this topicStart new topic
1 User(s) are reading this topic (1 Guests and 0 Anonymous Users)
0 Members:

 



- Lo-Fi Version Support form
Copyrights and abuse reports form
Time is now: 3rd December 2021 - 04:39:10