Welcome Guest ( Log In | Register )

> Moonblood - The Unholy [ep] (2015), Black Metal
post Mar 10 2016, 09:09:02
Post #1

Правь статус, ####!111
**************
Group: Металариец
Posts: 2,307
Releases: 1860
From: Praha
On Forums: 7 years 3 months
Thanks: 49345 time(s)
Czech Republic


(IMG:http://metalarea.org/images/audiocovers/2016_Mar/acov_tid263708_thumb.jpg)

*Artist: Moonblood
*Album: The Unholy [ep]
*Year: 2015
*Genre: Black Metal
*Country: Germany (IMG:http://metalarea.org/forum/style_images/flags/Germany.png)
*Format: mp3@CBR320kbps
*Size: 29MB

Tracklist:
1. Slave of Eternity (Nachzehrer) 07:31
2. The Unholy 04:52
******************************
Total playing time: 12:23

Extended info
Misanthrophia Discos - MD 007
Vinyl-rip

KKVLT


Technical info
(IMG:http://metalarea.org/images/spectrogram/2016_Mar/abb9a27b4f13eef8dd5f98ac9e8e2307.png)
Input File: 01. Slave Of Eternity (Nachzehrer).mp3
Channels : 2
Sample Rate : 44100
Precision : 16-bit
Duration : 00:07:27.34 = 19727650 samples = 33550.4 CDDA sectors
File Size : 18.0M
Bit Rate : 322k
Sample Encoding: MPEG audio (layer I, II or III)
Comments :
Title=Slave Of Eternity (Nachzehrer)
Artist=Moonblood
Album=The Unholy
Tracknumber=01/02
Year=2015
Genre=Black Metal



Register


Go to the top of the page
  Insert nick Quick quote
+Quote Post
 
Start new topic
Replies (1 - 6)
post Mar 10 2016, 15:31:43
Post #2

Маньяк
**********
Group: Металариец
Posts: 1,098
Releases: 14
On Forums: 12 years 10 months
Thanks: 958 time(s)
Russian Federation


Треки записаны в 1999, а вокал в 2015.
Go to the top of the page
  Insert nick Quick quote
+Quote Post
post Mar 10 2016, 15:45:43
Post #3

Мегаманьяк
***********
Group: Металариец
Posts: 1,504
Releases: 0
From: Canada
On Forums: 8 years 8 months
Thanks: 937 time(s)
Canada


Note that the two songs on this release are repeats of Moonblood's tracks found on Moonblood & Ensom Skogen & Forgotten Spell - Flammenwut/Aesthetics Of The Necromantic Manifestation/The Unholy [split] - 2015

Moonblood & Ensom Skogen & Forgotten Spell - Flammenwut/Aesthetics Of The Necromantic Manifestation/The Unholy [split] (2015)
Go to the top of the page
  Insert nick Quick quote
+Quote Post
post Mar 10 2016, 20:47:53
Post #4

the faceless one
Group Icon
Group: S-moderation team
Posts: 9,432
Releases: 1950
On Forums: 12 years 11 months
Thanks: 118460 time(s)
Russian Federation


Зеркало -

Register


Go to the top of the page
  Insert nick Quick quote
+Quote Post
post Mar 10 2016, 20:52:34
Post #5

Четыре Литра
****
Group: Металариец
Posts: 314
Releases: 0
On Forums: 15 years 1 week
Thanks: 189 time(s)
Belarus




Go to the top of the page
  Insert nick Quick quote
+Quote Post
Blake
post Mar 13 2016, 20:48:34
Post #6

Guests team






this tracks taken from Ensom_Skogen_-_Forgotten_Spell_-_Moonblood-Split-2015-B2R. original edition 7 '' https://www.discogs.com/Moonblood-The-Unholy/master/934043


Thanks:
Go to the top of the page
  Insert nick Quick quote
+Quote Post
post Feb 15 2020, 14:23:59
Post #7

Добрый
**************
Group: Металариец
Posts: 5,038
Releases: 0
On Forums: 3 years 1 month
Thanks: 12804 time(s)
Russian Federation


28 mb/320 kbps
Register


Go to the top of the page
  Insert nick Quick quote
+Quote Post

Reply to this topicStart new topic
2 User(s) are reading this topic (2 Guests and 0 Anonymous Users)
0 Members:

 



- Lo-Fi Version Support form
Copyrights and abuse reports form
Time is now: 4th August 2021 - 14:56:05