Welcome Guest ( Log In | Register )

> Arcana 13 - Danza Macabra (2016), Occult Doom/Heavy Metal/Rock
post Mar 11 2016, 04:03:52
Post #1

Аннигилятор пивА
Group Icon
Group: V.I.P
Posts: 52,360
Releases: 16550
From: Koenigsberg - TILZIT
On Forums: 14 years 10 months
Thanks: 367421 time(s)
Russian Federation


(IMG:https://metalarea.org/images/audiocovers/2016_Mar/acov_tid263771_thumb.jpg)

*Artist: Arcana 13
*Album: Danza Macabra
*Year: 2016
*Genre: Occult Doom/Heavy Metal/Rock
*Country: Italy (IMG:https://metalarea.org/forum/style_images/flags/Italy.png)
*Format: mp3@CBR320kbps
*Size: 129MB

Tracklist:
01. Dread Ritual
02. Arcane XIII
03. Land of Revenge
04. Oblivion Mushroom
05. Suspiria
06. Blackmaster
07. The Holy Cult of Suicide
08. Hell Behind You
******************************
Total playing time: 52:56



Extended info
Influence: Black Sabbath, Pentagram, Ghost, Danzig, C.O.C., Down, Dario Argento, Lucio Fulci, Sleep, Mario Bava

S. Bertozzi • Guitars and vocals
A. Burdisso • Guitars and vocals
F. Petrini • Bass
L. Taroni • Drums





Technical info
(IMG:https://metalarea.org/images/spectrogram/2016_Mar/0b94bf43a1910caef86863911bbef654.png)
Input File: 02. Arcane XIII.mp3
Channels : 2
Sample Rate : 44100
Precision : 16-bit
Duration : 00:05:57.29 = 15756357 samples = 26796.5 CDDA sectors
File Size : 14.4M
Bit Rate : 322k
Sample Encoding: MPEG audio (layer I, II or III)
Comments :
Title=Arcane XIII
Artist=Arcana 13
Album=Danza Macabra
Tracknumber=02/08
Year=2016



Register


Go to the top of the page
  Insert nick Quick quote
+Quote Post
 
Start new topic
Replies (1 - 5)
post Mar 11 2016, 06:45:11
Post #2

**************
Group: Металариец
Posts: 2,619
Releases: 14
From: Казань
On Forums: 11 years 7 months
Thanks: 3624 time(s)
Russian Federation


По моему- клево. Ассоциации - Харлей Дэвидсон и ковбой Мальборо, Lucky Strike и Alannah Myles. Как то так
Go to the top of the page
  Insert nick Quick quote
+Quote Post
post Mar 13 2016, 12:57:14
Post #3

Правь статус, ####!111
**************
Group: Металариец
Posts: 48,650
Releases: 813
On Forums: 11 years 10 months
Thanks: 42861 time(s)
Russian Federation


Отличнейший альбом - приятен по музыке, шикарен по атмосфере, грамотен по посылу. Культ 70-х живёт и процветает и здорово, что Италия вновь возвращается к корням. Рекомендации не только фэнам оккульт рока и металла, но и фанатам итальянских ужасов, триллеров, джалло. Классика не умирает! (IMG:style_emoticons/default/20.gif)
Go to the top of the page
  Insert nick Quick quote
+Quote Post
post Apr 16 2016, 17:27:03
Post #4

Кожаный ублюдок
**************
Group: Металариец
Posts: 3,337
Releases: 6
From: Алчевск (early) Некросибирск (now)
On Forums: 11 years 11 months
Thanks: 2223 time(s)
Russian Federation


Собственно пришедшая весна принесла в жизнь первое тепло, а значит можно наконец подолгу находится на улице, без риска отморозить себе что-то ценное и жизненно необходимое. Но ни одна прогулка не обходится без музыкального сопровождения, а так как хочется побольше энергии, то и выбор пал на итальянцев Arcana 13 и их дебют «Danza Macabra».
Сказать, что квартет из Равенны запал в душу не смогу, но то, что группу стоит взять на заметку можно сказать точно. Драйвовый такой оккультно-психоделичный рок, с заметным подражанием многим отцам жанра, метала особо много, хотя влияние такового ощущается, трад думом местами попахивает, но не более.
В общем опус на любителя и даже поклонники оценят далеко не все. Но послушать все же стоит! (IMG:style_emoticons/default/9.gif) (IMG:style_emoticons/default/9.gif) (IMG:style_emoticons/default/9.gif)


Go to the top of the page
  Insert nick Quick quote
+Quote Post
post Apr 12 2021, 19:27:25
Post #5

Девять Литров
*********
Group: Металариец
Posts: 949
Releases: 0
On Forums: 2 years 9 months
Thanks: 32 time(s)
Serbia


PLS REUPLOAD
Go to the top of the page
  Insert nick Quick quote
+Quote Post
post Apr 13 2021, 22:01:17
Post #6

Три Литра
***
Group: Завсегдатай
Posts: 297
Releases: 0
On Forums: 7 years 3 months
Thanks: 761 time(s)
Russian Federation


320 [lame3.93.1]
Register


Go to the top of the page
  Insert nick Quick quote
+Quote Post

Reply to this topicStart new topic
1 User(s) are reading this topic (1 Guests and 0 Anonymous Users)
0 Members:

 



- Lo-Fi Version Support form
Copyrights and abuse reports form
Time is now: 21st April 2021 - 15:37:04