Welcome Guest ( Log In | Register )

> Fearancy - Paranoia (2016), Groove Metal
post Mar 11 2016, 18:24:58
Post #1

Serial Uploader
Group Icon
Group: V.I.P
Posts: 37,608
Releases: 35780
From: Lithuania
On Forums: 13 years 1 month
Thanks: 433148 time(s)
Lithuania


(IMG:http://metalarea.org/images/audiocovers/2016_Mar/acov_tid263799_thumb.jpg)

*Artist: Fearancy
*Album: Paranoia
*Year: 2016
*Genre: Groove Metal
*Country: Austria (IMG:http://metalarea.org/forum/style_images/flags/Austria.png)
*Format: mp3@CBR320kbps
*Size: 136MB

Tracklist:
01. XIII
02. Forever Gone
03. Frequency Of Fear
04. Facade
05. Eternal Night
06. Decisions
07. God Of War
08. Leave It All Behind
09. No Other Choice
10. Act Of Violence
11. Fight
12. Sand Of Time
13. Forgiveness
14. The Search
******************************
Total playing time: 56:50



Technical info
(IMG:http://metalarea.org/images/spectrogram/2016_Mar/2b761b7d51cde1d4d7280a48eb12879c.png)
Input File: 02. Forever Gone.mp3
Channels : 2
Sample Rate : 44100
Precision : 16-bit
Duration : 00:04:10.15 = 11031571 samples = 18761.2 CDDA sectors
File Size : 10.3M
Bit Rate : 329k
Sample Encoding: MPEG audio (layer I, II or III)
Comments :
Title=Forever Gone
Artist=Fearancy
Album=Paranoia
Tracknumber=02/14
Year=2016



Register


Go to the top of the page
  Insert nick Quick quote
+Quote Post
 
Start new topic
Replies (1 - 1)
post Mar 13 2016, 20:36:31
Post #2

Маньяк
**********
Group: Металариец
Posts: 1,021
Releases: 65
On Forums: 14 years 4 months
Thanks: 948 time(s)
Ukraine


Тот случай, когда всё более-менее хорошо до... припева. А от слащавых припевов просто блевать охота. (IMG:style_emoticons/default/22.gif)
Go to the top of the page
  Insert nick Quick quote
+Quote Post

Reply to this topicStart new topic
1 User(s) are reading this topic (1 Guests and 0 Anonymous Users)
0 Members:

 



- Lo-Fi Version Support form
Copyrights and abuse reports form
Time is now: 24th July 2021 - 07:01:32