Welcome Guest ( Log In | Register )

 
Reply to this topicStart new topic
> Sour Cream - Step Stoned​/​Drink Alone [single] (2016), Stoner/Doom Metal
post Mar 13 2016, 17:21:29
Post #1

Три Литра
***
Group: Завсегдатай
Posts: 219
Releases: 150
On Forums: 9 years 8 months
Thanks: 1706 time(s)
Paraguay


(IMG:http://metalarea.org/images/audiocovers/2016_Mar/acov_tid263924_thumb.jpg)

*Artist: Sour Cream
*Album: Step Stoned​/​Drink Alone [single]
*Year: 2016
*Genre: Stoner/Doom Metal
*Country: Australia (IMG:http://metalarea.org/forum/style_images/flags/Australia.png)
*Format: mp3@CBR320kbps
*Size: 29MB

Tracklist:
1. Step Stoned 05:54
2. Drink Alone 06:25
******************************
Total playing time: 12:19



Extended info
Sour Cream:
Sam White: Bass.
Ben Howell: Bass.
Julien Crendal: Drums.
Drew Montgomery: Guitars.
Morgan Anthony: Guitars, Vocals.


Technical info
(IMG:http://metalarea.org/images/spectrogram/2016_Mar/a8b97e70c46892807f6fb4d01fc12fd4.png)
Input File: Step Stoned-Sample.mp3
Channels : 2
Sample Rate : 44100
Precision : 16-bit
Duration : 00:01:00.03 = 2647279 samples = 4502.18 CDDA sectors
File Size : 2.40M
Bit Rate : 320k
Sample Encoding: MPEG audio (layer I, II or III)
Comments :
Title=Step Stoned
Artist=Sour Cream
Album=Step Stoned/Drink Alone
Tracknumber=1
Year=2016
Genre=Stoner/Doom Metal



Register


Go to the top of the page
  Insert nick Quick quote
+Quote Post

Reply to this topicStart new topic
1 User(s) are reading this topic (1 Guests and 0 Anonymous Users)
0 Members:

 



- Lo-Fi Version Support form
Copyrights and abuse reports form
Time is now: 25th July 2021 - 20:51:15