Welcome Guest ( Log In | Register )

 
Reply to this topicStart new topic
> Concertina - Concertina [ep] (2015), Stoner/Heavy Metal
post Mar 13 2016, 18:12:20
Post #1

Три Литра
***
Group: Завсегдатай
Posts: 219
Releases: 150
On Forums: 9 years 8 months
Thanks: 1706 time(s)
Paraguay


(IMG:http://metalarea.org/images/audiocovers/2016_Mar/acov_tid263926_thumb.jpg)

*Artist: Concertina
*Album: Concertina [ep]
*Year: 2015
*Genre: Stoner/Heavy Metal
*Country: United States (IMG:http://metalarea.org/forum/style_images/flags/United%20States.png)
*Format: mp3@CBR320kbps
*Size: 61MB

Tracklist:
1. Blood Eagle 05:50
2. No Sympathy 05:13
3. Prejudicial Swine 05:13
4. Opportunity Lost 05:01
5. Death Grip 05:01
******************************
Total playing time: 26:18



Extended info
Concertina:
Adrian Aragon: Bass.
Chastin Short: Drums.
Cameron White: Guitars.
Cade Miller: Guitars, Vocals.


Technical info
(IMG:http://metalarea.org/images/spectrogram/2016_Mar/2b26743a16d98dc625031cc824a2570e.png)
Input File: 01 Blood Eagle.mp3
Channels : 2
Sample Rate : 44100
Precision : 16-bit
Duration : 00:05:50.73 = 15467149 samples = 26304.7 CDDA sectors
File Size : 14.2M
Bit Rate : 324k
Sample Encoding: MPEG audio (layer I, II or III)
Comments :
Title=Blood Eagle
Artist=Concertina
Album=Concertina
Tracknumber=1
Year=2015
Genre=Stoner Metal/Rock



Register


Thanks:
(2) marilin, Rosen,
Go to the top of the page
  Insert nick Quick quote
+Quote Post

Reply to this topicStart new topic
1 User(s) are reading this topic (1 Guests and 0 Anonymous Users)
0 Members:

 



- Lo-Fi Version Support form
Copyrights and abuse reports form
Time is now: 25th July 2021 - 19:24:58