Welcome Guest ( Log In | Register )

 
Reply to this topicStart new topic
> Ethereal Riffian - Youniversal Voice [live] (2016), Psychedelic Stoner/Doom Metal
post Mar 13 2016, 21:18:46
Post #1

Три Литра
***
Group: Завсегдатай
Posts: 219
Releases: 150
On Forums: 9 years 6 months
Thanks: 1705 time(s)
Paraguay


(IMG:http://metalarea.org/images/audiocovers/2016_Mar/acov_tid263932_thumb.jpg)

*Artist: Ethereal Riffian
*Album: Youniversal Voice [live]
*Year: 2016
*Genre: Psychedelic Stoner/Doom Metal
*Country: Ukraine (IMG:http://metalarea.org/forum/style_images/flags/Ukraine.png)
*Format: mp3@CBR320kbps
*Size: 153MB

Tracklist:
1. Sword of the Deathless 03:56
2. Beyond 06:52
3. Thugdam 07:52
4. Wakan Tanka 12:08
5. March of Spiritu 11:06
6. Voice of Reason 04:01
7. Anatman 12:27
8. Drum of the Deathless 07:00
******************************
Total playing time: 1:05:22



Extended info
Ethereal Riffian:
Val Kornev: Guitar, Vocals.
Alexander Kornev: Bass.
Max Yuhimenko: Guitar.
Nikita Shipovskoi: Drums.


Technical info
(IMG:http://metalarea.org/images/spectrogram/2016_Mar/7964abbbf11a6dbf7780b3004ae2356e.png)
Input File: 06 Voice Of Reason.mp3
Channels : 2
Sample Rate : 48000
Precision : 16-bit
Duration : 00:04:08.18 = 11912688 samples ~ 18613.6 CDDA sectors
File Size : 10.2M
Bit Rate : 328k
Sample Encoding: MPEG audio (layer I, II or III)
Comments :
Title=Voice Of Reason
Artist=Ethereal Riffian
Album=Youniversal Voice (Live)
Tracknumber=6
Year=2016
Genre=Psychedelic Doom Metal



Register


Go to the top of the page
  Insert nick Quick quote
+Quote Post

Reply to this topicStart new topic
2 User(s) are reading this topic (2 Guests and 0 Anonymous Users)
0 Members:

 



- Lo-Fi Version Support form
Copyrights and abuse reports form
Time is now: 23rd June 2021 - 22:36:16