Welcome Guest ( Log In | Register )

> 

Здесь релизы с живыми прямыми ссылками на lossless

 
Reply to this topicStart new topic
> Deville - Make It Belong To Us (2015), Stoner Rock/Metal (D4)
post Mar 14 2016, 00:14:08
Post #1

Три Литра
***
Group: Завсегдатай
Posts: 219
Releases: 150
On Forums: 9 years 6 months
Thanks: 1705 time(s)
Paraguay


(IMG:http://metalarea.org/images/audiocovers/2016_Mar/acov_tid263933_thumb.jpg)

*Artist: Deville
*Album: Make It Belong To Us
*Year: 2015
*Genre: Stoner Rock/Metal
*Country: Sweden (IMG:http://metalarea.org/forum/style_images/flags/Sweden.png)
*Format: mp3@CBR320kbps
*Size: 89MB

Tracklist:
1. Make It Belong to Me 03:36
2. Chief 02:28
3. Out of the Black 03:12
4. Mind on Hold 03:36
5. Lever 03:41
6. Drive 03:33
7. Life in Decay 04:11
8. Dying to Feel 04:14
9. Reflecting Surface 04:19
10. What Remains 04:29
******************************
Total playing time: 37:19



Extended info
Deville:
Markus Åkesson: Bass.
Markus Nilsson: Drums.
Andreas Bengtsson: Guitars, Vocals.
Andreas Wulkan: Guitars.


Technical info
(IMG:http://metalarea.org/images/spectrogram/2016_Mar/5b8e8db86128cd8720f2157c3d8f8cc3.png)
Input File: 02 Chief.mp3
Channels : 2
Sample Rate : 44100
Precision : 16-bit
Duration : 00:02:28.97 = 6569445 samples = 11172.5 CDDA sectors
File Size : 6.31M
Bit Rate : 339k
Sample Encoding: MPEG audio (layer I, II or III)
Comments :
Title=Chief
Artist=Deville
Album=Make It Belong To Us
Tracknumber=2
Year=2015
Genre=Stoner Metal/Rock



Register


Go to the top of the page
  Insert nick Quick quote
+Quote Post
post Apr 8 2021, 05:33:57
Post #2

Два Литра
**
Group: Завсегдатай
Posts: 167
Releases: 0
From: Russian Federation
On Forums: 14 years 9 months
Thanks: 3 time(s)
Russian Federation


Thank you very much, but unfortunately the link is no longer available (IMG:style_emoticons/default/6.gif)
Can anyone help?
Go to the top of the page
  Insert nick Quick quote
+Quote Post
post Apr 11 2021, 10:55:12
Post #3

Group Icon
Group: S-moderation team
Posts: 21,100
Releases: 1443
From: Zagreb
On Forums: 10 years 3 months
Thanks: 97330 time(s)
Croatia


Register
Register


Thanks:
Go to the top of the page
  Insert nick Quick quote
+Quote Post

Reply to this topicStart new topic
1 User(s) are reading this topic (1 Guests and 0 Anonymous Users)
0 Members:

 



- Lo-Fi Version Support form
Copyrights and abuse reports form
Time is now: 18th June 2021 - 01:05:08