Welcome Guest ( Log In | Register )

 
Reply to this topicStart new topic
> Silent Vice - The Last Breath Of An Innocent Heart (2015), Death/Doom/Gothic Metal
post Mar 15 2016, 14:24:02
Post #1

Правь статус, ####!111
**************
Group: Металариец
Posts: 26,280
Releases: 18909
From: Г.Харьков
On Forums: 9 years 1 month
Thanks: 376537 time(s)
Unknown


(IMG:http://metalarea.org/images/audiocovers/2016_Mar/acov_tid264054_thumb.jpg)

*Artist: Silent Vice
*Album: The Last Breath Of An Innocent Heart
*Year: 2015
*Genre: Death/Doom/Gothic Metal
*Country: Spain (IMG:http://metalarea.org/forum/style_images/flags/Spain.png)
*Format: mp3@CBR320kbps
*Size: 93MB

Tracklist:
1. Protected part I 03:44
2. Protected part II 07:49
3. The Broken 05:39
4. Since the Words Last Days 05:48
5. Waves 04:36
6. The New Flesh 03:25
7. Forgotten Steps 10:10
******************************
Total playing time: 41:11



Technical info
(IMG:http://metalarea.org/images/spectrogram/2016_Mar/e829528aee0048f20493d83d88ac7500.png)
Input File: 03 - The Broken.mp3
Channels : 2
Sample Rate : 44100
Precision : 16-bit
Duration : 00:05:39.05 = 14952237 samples = 25429 CDDA sectors
File Size : 13.6M
Bit Rate : 320k
Sample Encoding: MPEG audio (layer I, II or III)
Comments :
Title=The Broken
Artist=Silent Vice
Album=The Last Breath Of An Innocent Heart
Tracknumber=3
Year=2015
Genre=Metal



Register


Go to the top of the page
  Insert nick Quick quote
+Quote Post
post Mar 15 2016, 18:49:11
Post #2

Common dweller of hell
**************
Group: Металариец
Posts: 3,815
Releases: 12
From: Dnipro
On Forums: 12 years 11 months
Thanks: 1501 time(s)
Ukraine


Модернятитна. (((
Go to the top of the page
  Insert nick Quick quote
+Quote Post
post Mar 17 2016, 15:55:29
Post #3

Литр
*
Group: Подсевший
Posts: 60
Releases: 0
From: VRN
On Forums: 13 years 5 months
Thanks: 21 time(s)
Russian Federation


по превьюшке - шикарно. и какая тут может быть модернятина, если тут не мдм?
Go to the top of the page
  Insert nick Quick quote
+Quote Post
post Feb 13 2019, 16:52:10
Post #4

Group: Дух
Posts: 5
Releases: 0
On Forums: 7 years 11 months
Thanks: 0 time(s)
Unknown


Any chance to re-up this?
Go to the top of the page
  Insert nick Quick quote
+Quote Post
post Apr 6 2021, 21:42:48
Post #5

threat
******
Group: Металариец
Posts: 610
Releases: 0
On Forums: 14 years 10 months
Thanks: 53 time(s)
Turkey


can you renew the link
Go to the top of the page
  Insert nick Quick quote
+Quote Post
post Apr 11 2021, 09:13:26
Post #6

Group Icon
Group: S-moderation team
Posts: 21,086
Releases: 1443
From: Zagreb
On Forums: 10 years 3 months
Thanks: 97115 time(s)
Croatia


Register


Thanks:
(1) Olethros,
Go to the top of the page
  Insert nick Quick quote
+Quote Post

Reply to this topicStart new topic
1 User(s) are reading this topic (1 Guests and 0 Anonymous Users)
0 Members:

 



- Lo-Fi Version Support form
Copyrights and abuse reports form
Time is now: 12th June 2021 - 21:51:24