Welcome Guest ( Log In | Register )

> Ragehammer - The Hammer Doctrine (2016), Black/Thrash Metal
post Mar 15 2016, 23:56:34
Post #1

Мегаманьяк
***********
Group: Металариец
Posts: 1,981
Releases: 1612
From: Saratov
On Forums: 14 years 2 weeks
Thanks: 57985 time(s)
Russian Federation


(IMG:http://metalarea.org/images/audiocovers/2016_Mar/acov_tid264108_thumb.jpg)

*Artist: Ragehammer
*Album: The Hammer Doctrine
*Year: 2016
*Genre: Black/Thrash Metal
*Country: Poland (IMG:http://metalarea.org/forum/style_images/flags/Poland.png)
*Format: mp3@CBR320kbps
*Size: 96MB

Tracklist:
1. First Wave Black Metal 04:44
2. Unleash the Dogs 03:47
3. Wróg 04:47
4. Warlord's Fall 05:48
5. Knives 06:30
6. I Am the Tyrant 05:00
7. Pure Hatred 04:22
8. From Homo Sapiens to Homo Raptor 04:33
9. Spotkanie z Diabłem (Krzysztof Klenczon i Trzy Korony cover) 02:39
******************************
Total playing time: 42:10



Technical info
(IMG:http://metalarea.org/images/spectrogram/2016_Mar/61f448bec1426e5c1d866995b38c5456.png)
Input File: 02 Unleash the Dogs.mp3
Channels : 2
Sample Rate : 44100
Precision : 16-bit
Duration : 00:03:46.72 = 9998132 samples = 17003.6 CDDA sectors
File Size : 9.07M
Bit Rate : 320k
Sample Encoding: MPEG audio (layer I, II or III)
Comments :
Title=Unleash the Dogs
Artist=Ragehammer
Album=The Hammer Doctrine
Tracknumber=2
Year=2016
Genre=Black/Thrash Metal
Discnumber=1/1



Register


Go to the top of the page
  Insert nick Quick quote
+Quote Post
 
Start new topic
Replies (1 - 9)
post Mar 21 2016, 20:12:17
Post #2

И Ван Дамм По Делам Вашим!
**************
Group: Металариец
Posts: 20,038
Releases: 26
On Forums: 13 years 2 months
Thanks: 11314 time(s)
Honduras


Совершенно случайно на ютубе наткнулся, начал слушать и ....это здорово!


Thanks:
(1) Andrew,
Go to the top of the page
  Insert nick Quick quote
+Quote Post
post Mar 21 2016, 20:53:15
Post #3

Маньяк
**********
Group: Металариец
Posts: 1,295
Releases: 44
From: Moscow
On Forums: 15 years 2 months
Thanks: 1071 time(s)
Russian Federation


Да, мне тоже понравилось! (IMG:style_emoticons/default/20.gif)
Go to the top of the page
  Insert nick Quick quote
+Quote Post
post Mar 21 2016, 21:40:37
Post #4

MDM-Thrash Metal
**************
Group: Металариец
Posts: 10,587
Releases: 1316
From: Одесса
On Forums: 14 years 1 month
Thanks: 31787 time(s)
Ukraine


Согласен, очень симпатишно! (IMG:style_emoticons/default/9.gif)
Go to the top of the page
  Insert nick Quick quote
+Quote Post
post Aug 24 2016, 21:45:20
Post #5

antithesis
**************
Group: Металариец
Posts: 3,428
Releases: 35
From: VRN
On Forums: 11 years 3 months
Thanks: 2192 time(s)
Russian Federation


отвал башки, и, если вкратце, - 3@е6ись. сталь и адреналин.


Thanks:
Go to the top of the page
  Insert nick Quick quote
+Quote Post
post Aug 25 2016, 13:05:10
Post #6

Маньяк
**********
Group: Металариец
Posts: 1,021
Releases: 65
On Forums: 14 years 6 months
Thanks: 950 time(s)
Ukraine


Уххх.... годнота)))
Go to the top of the page
  Insert nick Quick quote
+Quote Post
post Aug 25 2016, 17:37:42
Post #7

_ - = # Thrashogolic # = - _ ... а давайте поржём все вместе
**************
Group: Металариец
Posts: 21,095
Releases: 4443
From: 404
On Forums: 11 years 3 months
Thanks: 28081 time(s)
Ukraine


С чего начинали -> RageHammer - War Hawks [demo] (2012)
Go to the top of the page
  Insert nick Quick quote
+Quote Post
post Sep 3 2016, 11:57:15
Post #8

Три Литра
***
Group: Завсегдатай
Posts: 296
Releases: 0
On Forums: 13 years 4 months
Thanks: 93 time(s)
Ukraine


Сильно (IMG:style_emoticons/default/pray.gif)
Go to the top of the page
  Insert nick Quick quote
+Quote Post
post Jun 3 2018, 15:58:49
Post #9

Stultus Anethum Siccum.
******
Group: Металариец
Posts: 662
Releases: 0
On Forums: 12 years 8 months
Thanks: 81 time(s)
Unknown


Тупо, прямолинейно и неинтересно.
Сплошное бжы-бжы-бжы.

Go to the top of the page
  Insert nick Quick quote
+Quote Post
post Feb 22 2019, 00:07:02
Post #10

_ - = # Thrashogolic # = - _ ... а давайте поржём все вместе
**************
Group: Металариец
Posts: 21,095
Releases: 4443
From: 404
On Forums: 11 years 3 months
Thanks: 28081 time(s)
Ukraine




Thanks:
(1) Luka,
Go to the top of the page
  Insert nick Quick quote
+Quote Post

Reply to this topicStart new topic
2 User(s) are reading this topic (2 Guests and 0 Anonymous Users)
0 Members:

 



- Lo-Fi Version Support form
Copyrights and abuse reports form
Time is now: 20th September 2021 - 21:45:33