Welcome Guest ( Log In | Register )

 
Reply to this topicStart new topic
> Ahrcana - Promo 2001 [demo] (2001), Power Metal
post Mar 16 2016, 17:50:28
Post #1

Carcassticism
**************
Group: Металариец
Posts: 5,441
Releases: 2536
On Forums: 15 years 9 months
Thanks: 16131 time(s)
Russian Federation


(IMG:http://metalarea.org/images/audiocovers/2016_Mar/acov_tid264160_thumb.jpg)

*Artist: Ahrcana
*Album: Promo 2001 [demo]
*Year: 2001
*Genre: Power Metal
*Country: Italy (IMG:http://metalarea.org/forum/style_images/flags/Italy.png)
*Format: mp3@CBR320kbps
*Size: 27MB

Tracklist:
1. The Travel
2. Gates To Realm
******************************
Total playing time: 12:15

Preview 1

Technical info
(IMG:http://metalarea.org/images/spectrogram/2016_Mar/351a28fb3e516bb03f70d38d7ee7116a.png)
Input File: 1. The Travel.mp3
Channels : 2
Sample Rate : 44100
Precision : 16-bit
Duration : 00:04:33.17 = 12046577 samples = 20487.4 CDDA sectors
File Size : 11.0M
Bit Rate : 322k
Sample Encoding: MPEG audio (layer I, II or III)
Comments :
Title=The Travel
Artist=Ahrcana
Album=Promo 2001
Tracknumber=1
Year=2001
Genre=Power Metal



Register


Go to the top of the page
  Insert nick Quick quote
+Quote Post

Reply to this topicStart new topic
1 User(s) are reading this topic (1 Guests and 0 Anonymous Users)
0 Members:

 



- Lo-Fi Version Support form
Copyrights and abuse reports form
Time is now: 3rd March 2024 - 11:00:59