Welcome Guest ( Log In | Register )

> Rhythm Of Fear - Maze Of Confusion (2016), Thrash Metal/Crossover (D4)
post Mar 18 2016, 18:09:34
Post #1

Serial Uploader
Group Icon
Group: V.I.P
Posts: 39,534
Releases: 37658
From: Lithuania
On Forums: 14 years 7 months
Thanks: 473671 time(s)
Lithuania


(IMG:http://metalarea.org/images/audiocovers/2016_Mar/acov_tid264337_thumb.jpg)

*Artist: Rhythm Of Fear
*Album: Maze Of Confusion
*Year: 2016
*Genre: Thrash Metal/Crossover
*Country: United States (IMG:http://metalarea.org/forum/style_images/flags/United%20States.png)
*Format: mp3@CBR320kbps
*Size: 82MB

Tracklist:
01. Ten Theories
02. Ask The Tarot
03. Dark Energy
04. Soul Turns Black
05. Maze Of Confusion
06. Brain Freeze
07. Interlude
08. Chemically Controlled
09. Smoke & Mirrors
10. Corrupt Nation
11. Fire In The Sky
12. Tribulation
13. Devil's Chair (Ft. Eddie Leeway)
******************************
Total playing time: 30:56





Technical info
(IMG:http://metalarea.org/images/spectrogram/2016_Mar/4340fcb3d7d4ae2a7a31edea55e8ecc0.png)
Input File: 02. Ask The Tarot.mp3
Channels : 2
Sample Rate : 44100
Precision : 16-bit
Duration : 00:02:09.09 = 5692693 samples = 9681.45 CDDA sectors
File Size : 5.55M
Bit Rate : 344k
Sample Encoding: MPEG audio (layer I, II or III)
Comments :
Title=Ask The Tarot
Artist=Rhythm Of Fear
Album=Maze Of Confusion
Tracknumber=02/13
Year=2016



Register


Go to the top of the page
  Insert nick Quick quote
+Quote Post
 
Start new topic
Replies (1 - 5)
post Jun 12 2016, 18:17:07
Post #2

_ - = # Thrashogolic # = - _ ... а давайте поржём все вместе
**************
Group: Металариец
Posts: 21,100
Releases: 4444
From: 404
On Forums: 12 years 7 months
Thanks: 28299 time(s)
Ukraine


Все скачали и молчок. (IMG:style_emoticons/default/smile2.gif)
А между прочим - отменнейший кроссовер! (IMG:style_emoticons/default/metaler.gif)
Go to the top of the page
  Insert nick Quick quote
+Quote Post
post Mar 14 2017, 20:20:46
Post #3

железный нечеловек
**********
Group: Металариец
Posts: 1,434
Releases: 3
From: Уфа
On Forums: 13 years 9 months
Thanks: 530 time(s)
Russian Federation


А перезалить?
Go to the top of the page
  Insert nick Quick quote
+Quote Post
post Jun 13 2017, 13:55:45
Post #4

brutalcesar
**************
Group: Металариец
Posts: 18,624
Releases: 76
From: Рязань
On Forums: 14 years 1 week
Thanks: 10910 time(s)
Russian Federation


Да ничего особенного...
Go to the top of the page
  Insert nick Quick quote
+Quote Post
post Jun 13 2017, 23:15:39
Post #5

Правь статус, ####!111
**************
Group: Металариец
Posts: 3,192
Releases: 0
On Forums: 7 years 8 months
Thanks: 4555 time(s)
Russian Federation


320
Register


Go to the top of the page
  Insert nick Quick quote
+Quote Post
post Jan 25 2023, 22:25:12
Post #6

Правь статус, ####!111
**************
Group: Металариец
Posts: 3,192
Releases: 0
On Forums: 7 years 8 months
Thanks: 4555 time(s)
Russian Federation


Обновил ссылку короче, если что пишите здесь или в личные сообщения.


Thanks:
(1) Ingvar,
Go to the top of the page
  Insert nick Quick quote
+Quote Post

Reply to this topicStart new topic
1 User(s) are reading this topic (1 Guests and 0 Anonymous Users)
0 Members:

 



- Lo-Fi Version Support form
Copyrights and abuse reports form
Time is now: 28th January 2023 - 21:55:15