Welcome Guest ( Log In | Register )

Объявления

* gmail.com упорно продолжает считать почту с нас "unsolicited" и отбивает в том числе и письма активации, поэтому просьба использовать альтернативные почтовые ящики.
------------
* gmail.com continues reject all mail from us as "unsolicited" (activation mails too) therefore please use alternate mail servers.
> Myrkwid - Part 3 (2013), Black Metal (D)
post Mar 19 2016, 15:23:06
Post #1

Serial Uploader
Group Icon
Group: V.I.P
Posts: 42,940
Releases: 41001
From: Lithuania
On Forums: 16 years 1 month
Thanks: 526893 time(s)
Lithuania


(IMG:https://metalarea.org/images/audiocovers/2016_Mar/acov_tid264375_thumb.jpg)

*Artist: Myrkwid
*Album: Part 3
*Year: 2013
*Genre: Black Metal
*Country: Germany (IMG:https://metalarea.org/forum/style_images/flags/Germany.png)
*Format: mp3@CBR320kbps
*Size: 117MB

Tracklist:
01. Act 15 02:28
02. Act 16 07:47
03. Act 17 06:35
04. Act 18 08:16
05. Act 19 07:38
06. Act 20 04:58
07. Act 21 13:34
******************************
Total playing time: 51:16

(IMG:https://metalarea.org/images/myspace.png)
(IMG:https://metalarea.org/images/youtube.png)

Extended info
Vinyl-rip


Technical info
(IMG:https://metalarea.org/images/spectrogram/2016_Mar/17541c8b260befacb37524187c6627d5.png)
Input File: 02. Act 16.mp3
Channels : 2
Sample Rate : 44100
Precision : 16-bit
Duration : 00:07:47.15 = 20601315 samples = 35036.2 CDDA sectors
File Size : 18.7M
Bit Rate : 320k
Sample Encoding: MPEG audio (layer I, II or III)
Comments :
Title=A2 Act 16
Artist=Myrkwid
Album=Part 3 [Black Vinyl Rip] [DarkAbyss.org]
Tracknumber=02
Year=2013
Genre=True Black Metal



Register


Go to the top of the page
  Insert nick Quick quote
+Quote Post
 
Start new topic
Replies (1 - 4)
post Feb 2 2024, 06:58:52
Post #2

Литр
*
Group: Подсевший
Posts: 72
Releases: 1
From: Nischel City
On Forums: 17 years 1 month
Thanks: 59 time(s)
Unknown


Ссыли сдохли, никто не перезальет?
Go to the top of the page
  Insert nick Quick quote
+Quote Post
post Feb 11 2024, 13:49:39
Post #3

Шесть Литров
******
Group: Металариец
Posts: 543
Releases: 0
From: Germany
On Forums: 10 years 8 months
Thanks: 20 time(s)
Germany


can anybody reup this file?
Go to the top of the page
  Insert nick Quick quote
+Quote Post
post May 15 2024, 13:47:24
Post #4

Мегаманьяк
***********
Group: Металариец
Posts: 1,839
Releases: 10
On Forums: 15 years 6 months
Thanks: 185 time(s)
Germany


Please, re-upload.
Go to the top of the page
  Insert nick Quick quote
+Quote Post
post May 15 2024, 14:25:53
Post #5

Два Литра
**
Group: Завсегдатай
Posts: 174
Releases: 0
On Forums: 4 years 7 months
Thanks: 227 time(s)
Russian Federation


320 kbps

Register


Thanks:
Go to the top of the page
  Insert nick Quick quote
+Quote Post

Reply to this topicStart new topic
1 User(s) are reading this topic (1 Guests and 0 Anonymous Users)
0 Members:

 



- Lo-Fi Version Support form
Copyrights and abuse reports form
Time is now: 14th July 2024 - 14:02:40